<?xml version="1.0" standalone="no"?>
<!DOCTYPE svg PUBLIC "-//W3C//DTD SVG 1.1//EN" "http://www.w3.org/Graphics/SVG/1.1/DTD/svg11.dtd" >
<svg xmlns="http://www.w3.org/2000/svg">
<metadata>Generated by IcoMoon</metadata>
<defs>
<font id="fontIcons" horiz-adv-x="1024">
<font-face units-per-em="1024" ascent="960" descent="-64" />
<missing-glyph horiz-adv-x="1024" />
<glyph unicode="&#x20;" horiz-adv-x="512" d="" />
<glyph unicode="&#xe000;" glyph-name="next" horiz-adv-x="1312" d="M1287.435 501.696l-499.808 428.704c-29.419 29.163-87.776 29.163-117.205 0-29.429-29.173-19.595-76.459 9.835-105.621l321.579-274.272c0 0 34.229-29.344 67.712-29.312l-986.233 0.009c-40.021-0.192-73.44-32.768-73.621-72.8-0.171-40.032 32.971-72.331 72.992-73.248l991.637 1.739c-0.053 1.099-0.117-0.939-0.181-0.939-42.997 0-66.005-23.744-66.005-23.744l-317.227-279.84c-29.419-29.152-39.253-76.448-9.824-105.6 29.419-29.163 87.787-29.163 117.205 0l489.152 429.175c14.752 14.613 22.101 33.76 22.059 52.896 0.021 19.125-7.339 38.249-22.069 52.853z" />
<glyph unicode="&#xe001;" glyph-name="store" horiz-adv-x="1063" d="M4.574-6.082c0 10.405 8.478 18.882 18.937 18.882h1019.44c10.446 0 18.923-8.478 18.923-18.882v-38.967c0-10.473-8.478-18.951-18.91-18.951h-1019.44c-10.459 0-18.937 8.478-18.937 18.965l-0.014 38.953zM1064.96 632.32c-40.96 81.92-58.478 161.737-81.92 294.407 0 7.509-18.405 33.273-40.96 33.273h-819.2c-22.555 0-40.96-25.765-40.96-33.287 0 0-40.96-253.433-81.92-294.393 0-41.643 0-124.123 0-124.123s0.56-1.378 1.419-3.278l-1.419 0.002c0 0 3.659-20.002 29.122-31.977 3.591-2.089 7.456-3.89 11.838-5.024v-371.358c0-22.487 23.374-37.682 45.861-37.682h322.779v339.122c0 22.555 21.504 40.754 43.977 40.754h163.063c22.473 0 40.713-18.199 40.713-40.754v-339.122h326.082c22.487 0 40.565 15.195 40.565 37.682v371.918c32.562 5.406 40.96 37.655 40.96 37.655h-1.038c0.642 1.899 1.038 3.305 1.038 3.305s0 81.92 0 122.88zM321.278 222.72c0-22.514-10.103-40.96-32.645-40.96h-84.487c-22.542 0-33.287 18.446-33.287 40.96v163.84c0 22.555 10.745 40.96 33.287 40.96h84.487c22.542 0 32.645-18.405 32.645-40.96v-163.84zM893.038 222.72c0-22.514-9.038-40.96-31.593-40.96h-83.6c-22.555 0-33.287 18.446-33.287 40.96v163.84c0 22.555 10.718 40.96 33.287 40.96h83.598c22.555 0 31.593-18.405 31.593-40.96l0.002-163.84zM900.478 884.907c0 0 43.527-208.418 70.082-252.587-40.645 0-111.682 0-111.682 0l-40.96 252.587h82.56zM974.642 591.36l-0.313-32.057c-4.014-28.139-27.975-49.863-57.207-49.863-32.043 0-57.522 19.102-57.522 51.145 0 0.901 1.365 30.775 1.365 30.775h113.678zM666.325 570.062l-0.082 21.298h116.478l-0.437-32.359c-4.126-28.002-28.046-49.561-57.168-49.561-32.043 0-58 25.954-58 58 0 0.901 0.247 1.735 0.286 2.622h-1.077zM735.998 884.907c0 0 30.72-202.656 43.527-252.587 12.807 0-113.282 0-113.282 0l-12.165 252.587h81.92zM490.238 884.907h83.202l14.882-252.587h-111.685l13.6 252.587zM475.655 591.36h113.623l0.725-28.576c-2.405-29.819-27.088-53.344-57.522-53.344s-55.118 23.525-57.522 53.344l0.697 28.576zM326.398 884.907h81.92l-12.153-252.587c0 0-80.007 0-109.445 0 12.807 46.080 39.678 252.587 39.678 252.587zM283.826 591.36h113.678l1.134-21.298h-1.079c0.041-0.873 0.286-1.721 0.286-2.622 0-32.046-25.968-58-58-58-29.081 0-52.935 21.463-57.125 49.358l1.106 32.562zM164.482 884.907h79.995l-33.616-252.587c0 0-81.579 0-111.657 0 31.362 56.962 65.278 252.587 65.278 252.587zM91.518 591.36h113.664c0 0-0.014-23.019-0.014-23.92-0.014-32.046-25.968-58-58.011-58-28.4 0-51.925 20.425-56.921 47.337l1.282 34.583z" />
<glyph unicode="&#xe002;" glyph-name="megaphone" horiz-adv-x="1573" d="M933.746 545.87c0 135.175 0 251.253 0 282.535 0 80.727-40.994 80.727-80.727 80.727-80.096 0-85.765-322.898-524.715-322.898l-201.824 0.007c-66.843 0-121.081-54.245-121.081-121.090v-80.727c0-66.846 54.238-121.083 121.083-121.083h31.262c2.793-21.966 6.496-75.445-15.591-117.422-59.433-112.951-43.177-152.962 16.167-150.393l73.497 0.759c20.256 0.203 40.267 18.256 44.608 40.16l52.917 226.88c440.409-0.514 442.265-322.885 523.671-322.885 0.638 0 1.269 0 1.893 0 40.912 0 78.834 0.631 78.834 80.72 0 31.499 0 147.504 0 282.535 66.846 0 121.083 54.238 121.083 121.090 0.005 66.848-54.233 121.086-121.077 121.086zM186.517 505.506h141.781v-80.72h-201.817c0 80.213 60.037 80.72 60.037 80.72zM853.013 57.422c-56.441 95.035-158.178 257.234-443.989 283.134l0.007 168.505c284.272 25.931 386.958 187.819 443.989 282.935l-0.007-246.126v-488.448zM489.751 424.786c155.186 0 282.542 35.989 282.542 35.989v123.099c0 0-126.487-118.722-282.542-118.722v-40.366zM1169.815 434.791c0-80.027-28.014-151.417-90.091-198.087l40.439-54.069c79.31 60.11 128.718 150.793 128.718 252.155 0 98.263-46.229 186.475-121.584 246.539l-34.103-59.392c52.942-46.507 76.622-113.122 76.622-187.147zM1253.145 900.35c147.68-103.2 229.417-266.619 229.417-450.281 0-182.638-81.010-345.17-227.010-448.457l39.25-52.475c165.061 117.502 274.343 295.008 274.343 500.933 0 205.559-95.314 376.494-283.323 507.042zM1405.273 438.274c0 154.014-76.725 291.657-198.215 381.918l-36.043-62.775c99.225-76.048 149.815-190.775 149.815-319.15 0-129.289-51.545-244.825-151.877-320.857l42.994-57.479c119.401 90.315 193.326 226.352 193.326 378.343z" />
<glyph unicode="&#xe003;" glyph-name="product" d="M827.079 880.923c-51.399 51.399-92.117 32.654-118.158 0-47.929-60.059-97.947-105.87-128.469-131.584-7.211 8.107-17.408 13.426-29.072 13.426h-78.763c-11.662 0-21.861-5.319-29.070-13.426-30.519 25.673-80.539 71.525-128.469 131.584-26.027 32.654-66.759 51.399-118.158 0-184.633-184.633 60.615-233.627 101.333-233.627h86.171c0 0-207.829 90.894-143.63 168.846 27.136 32.967 49.465 9.216 85.234-13.979 35.285-22.885 81.323-45.81 112.398-60.459-3.029-5.561-5.191-11.591-5.191-18.318v-39.381c0-21.703 17.678-39.381 39.381-39.381h78.763c21.703 0 39.381 17.678 39.381 39.381v39.381c0 6.741-2.162 12.757-5.163 18.318 31.033 14.649 77.070 37.575 112.398 60.459 35.755 23.195 58.098 46.949 85.234 13.979 64.199-77.938-143.63-168.846-143.63-168.846h86.171c40.693 0 285.941 48.981 101.307 233.627zM433.237 408.306c0 0-315.079 0-354.459 0v-393.842c0-21.703 17.678-39.381 39.381-39.381h315.079v433.223zM590.763 408.306v-433.237h315.079c21.703 0 39.381 17.678 39.381 39.381v393.842c-39.381 0.014-354.459 0.014-354.459 0.014zM945.237 605.227h-866.473c-21.703 0-39.381-17.678-39.381-39.381v-78.763c0-21.703 17.678-39.381 39.381-39.381h354.459v118.158h157.541v-118.158h354.459c21.703 0 39.381 17.678 39.381 39.381l0.016 76.073c0 21.703-17.694 42.071-39.383 42.071z" />
<glyph unicode="&#xe004;" glyph-name="geo" d="M621.134 812.071c0.158-0.078 0.709-0.393 0.827-0.512l4.686-2.325c0.789-0.473 2.402-0.747 3.15-0.551l2.087-3.465c1.184-1.497 1.184-1.497 11.465-4.962l0.393-0.039c0.078 0 0.158 0 0.277 0 0.315 0 0.709 0.039 0.985 0.078 1.063 0.197 2.009 0.866 2.521 1.929 0.551 1.102 0.789 1.771 0.315 2.875h3.23c0.158 0 0.315 0 0.473 0 1.378 0.197 2.757 1.339 3.191 2.679 0.512 1.497-0.277 3.703-1.458 4.727-0.473 0.315-0.59 0.434-4.411 2.402 0.551 1.575-0.197 2.757-2.757 7.287-0.158 0.197-0.434 0.473-0.67 0.709-1.102 1.063-1.417 1.182-6.263 2.757-0.277 0.078-0.631 0.119-0.905 0.158-0.315-0.039-1.063 0-1.378-0.039l-4.727-1.024c-0.475-0.158-0.946-0.395-1.342-0.631l-1.694-0.985c-0.197 0.119-0.393 0.197-0.631 0.277-0.473 0.119-1.536 0.354-2.087 0.235-1.024-0.119-1.813-0.59-2.402-1.102h-5.239c-1.378 0-2.837-0.946-3.465-2.206-0.235-0.512-0.393-1.102-0.393-1.694 0.078-2.443 0.747-2.914 6.222-6.578zM549.769 746.299c0.985-2.087 0.985-2.087 18.667-7.561 0.354-0.119 0.709-0.197 1.024-0.197h0.315c1.221 0 1.221 0 20.245 8.665 2.128 1.534 2.048 3.582 1.774 4.96-0.277 1.063-0.631 2.087-1.102 3.623-0.197 0.512-0.473 1.024-0.827 1.458-0.078 0.078-0.709 0.747-0.827 0.866l-7.76 6.224c-0.631 0.551-2.048 1.024-3.861 1.102l-14.139-2.599-3.15 2.048c-0.473 0.235-1.655 0.551-2.167 0.551-1.102 0-2.402-0.315-9.886-1.89-1.536-0.512-2.638-1.694-2.992-3.191-0.354-1.339 0.277-3.465 1.221-4.411 1.301-1.259 2.953-2.363 4.53-3.307l-1.221-2.914c-0.315-0.946-0.315-2.56 0.155-3.426zM839.641 229.691l-14.414-18.235-7.403-4.686-0.277 0.393-10.475-14.613-5.71-9.767-9.451-8.626c-0.158-0.277-0.827-1.259-11.737-17.998-0.277-0.551-0.354-1.89-0.473-3.623l7.246 3.23c-0.119 0 2.482 2.167 11.264 12.21l2.482 2.795 3.662-2.638 0.67 0.747c1.378 1.694 2.679 3.426 3.938 5.239l1.536 2.167c0.078 0.119 0.512 0.709 0.393 0.905l-2.795 2.521 2.441 2.795c2.402 2.875 4.962 6.105 7.799 9.65l6.498 8.153-0.395 0.233c0.709 1.024 1.339 2.087 2.009 3.15l0.866 1.417 1.929 0.789 1.929 2.363 11.106 20.441c0.158 0.354 0.158 0.354 0.709 3.662l-0.512 1.221c-0.197-0.51-0.866-1.376-2.834-3.897zM193.929 481.003c-0.59-1.063-1.378-2.757-2.087-4.293l-2.009-4.37-4.293 1.929c-3.781 2.757-7.877 5.671-12.011 8.585l-0.789 0.592c-5.632 3.977-11.186 7.915-15.872 11.499 0.158-0.158-0.434 0-0.709 0l-9.886-2.283c-0.985-0.67-2.795-4.923-5.12-10.318l-0.789-1.771 0.393-0.277 3.387-1.655-1.733-5.435c0-0.119 0-0.158 0.59-3.861l6.578 3.703 0.158-7.799c-0.277-3.033 0.747-5.947 2.638-7.445 0.67-0.473 1.536-0.747 2.402-0.747 2.837 0 5.397 3.033 5.829 6.853 0.119 1.378 0 2.795-0.434 4.096l-4.53 14.571 14.139-13.547-0.235-7.168c0.039-0.235 0.315-0.512 0.709-0.709l20.519 11.579 6.421 0.078c0.59 0.039 0.827 0.631 0.866 0.747 0 1.102-0.946 3.623-2.56 7.799-0.784 0.357-1.138 0.315-1.573-0.354zM512 954.014c-279.001 0-506.014-227.013-506.014-506.014s227.013-506.014 506.014-506.014 506.014 227.013 506.014 506.014c-0.039 279.001-227.013 506.014-506.014 506.014zM871.070 454.933c2.048-4.727 3.977-9.374 5.593-13.509l0.277-0.747-0.551-25.993-7.168 14.258-1.89 0.946-0.67 2.167-1.851 15.991-1.221 4.45 7.481 2.437zM512 5.986c-243.712 0-442.014 198.263-442.014 442.014 0 35.093 4.53 69.042 12.327 101.81 0.905-0.315 1.851-0.473 2.837-0.59-5.79-25.877-4.843-50.688-8.034-76.878 2.718-9.847 5.198-19.81 8.507-29.499l9.019-9.806 8.073 4.805c4.096-12.011 8.782-22.763 20.873-28.437 2.482-9.847 5.829-19.495 8.939-29.145l2.087-2.482 0.434 0.551 2.757 1.221c1.497-2.206 4.647-7.602 7.207-8.704l1.419-0.354c2.283-2.482 4.331-5.355 6.066-8.311l4.331 2.363 3.111 6.775c8.743-12.249 8.507-28.318 11.303-42.535-1.929-9.925-4.727-19.614-6.222-29.618 1.024-4.057 2.126-8.073 3.307-12.13l3.426-3.111-1.536-3.781c2.953-1.458 5.947-13.982 7.403-17.25 19.614-17.723 30.366-44.898 50.885-61.047 60.77-33.753 77.863-111.774 140.761-145.605l2.599-3.938c5.081-3.899 10.674-7.090 16.581-9.531 0 0 0.789-2.167 0.905-2.325 9.806-5.751 21.031-10.162 32.414-10.594l-11.145 7.010c-2.126 3.781-4.647 7.246-7.602 10.359l-6.971 2.402v2.757c-3.506 4.215-6.695 8.231-9.925 12.523l-4.766 2.679 2.718 3.623c-1.024 0.985-1.771 2.638-2.56 3.861l7.561 5.671-1.182 8.27c-2.126 2.283-5.79 3.938-8.469 5.397l8.665 3.545 2.363 7.326c2.56 3.387 5.159 6.775 7.68 10.162l-4.057 6.775 1.102 1.221-5.12 23.787c8.114 4.686 18.078 10.359 25.797 14.571 1.259 10.752 2.953 21.465 4.647 32.137l-5.198 23.829 3.703 5.081 4.962 2.325 13.351 25.442-0.039-0.039c-0.235 0-3.387 19.141-3.781 21.227-9.963 5.239-23.552 12.288-34.462 17.762-23.591 3.307-35.013 11.303-55.886 19.221l1.655 3.703 3.662 2.914-3.545-1.694c-0.158 0.315-0.315 0.631-0.473 0.905l-1.458-0.235c-9.728 7.010-15.241 16.777-21.781 26.505-8.389 3.977-16.423 7.207-15.202 20.007l-26.853-3.664-8.389 19.378c-11.383 5.593-22.174 12.327-35.013 13.785-1.536-0.512-3.072-1.301-4.411-2.245l-16.503 4.293-10.005 12.011-4.096-4.53c-2.56 1.378-5.239 2.718-7.68 4.293-14.651-8.546-16.974-11.303-23.079-27.097l-8.782 6.379-0.67 3.977v-3.938l-0.078 3.938v-3.938l-12.565-2.167-5.239 9.925c0.354 11.698 1.143 23.474 1.143 35.209-0.709 1.221-5.159 8.192-7.915 10.318l-11.303 2.402c-1.614 14.494 6.105 28.082 10.987 41.237l-0.631 0.59-16.149-2.245-4.096-16.338-11.186-2.167-5.867 17.211c4.923 27.097 11.106 44.229 26.466 67.742h9.294l9.019-9.019c1.851 1.655 3.426 7.915 4.135 11.029l16.818-6.025-1.339-32.807c2.009-1.024 3.387-1.024 4.686-1.024l5.081 5.198c6.263 18.117 7.287 33.161 16.777 50.176h2.325c9.808 6.142 19.063 13.035 28.517 19.691 3.662 5.12 3.506 13.47 5.159 19.81 1.97-1.378 4.018-2.718 5.79-4.293 6.341 6.93 13.115 13.39 17.959 21.465l18.274 1.97 4.331 5.12-1.102 2.834 5.513 8.034h5.435l19.929 9.963-2.718-11.225 0.946-1.143c8.27 4.096 17.447 7.403 26.112 10.752 0.905 1.102 1.536 2.402 1.813 3.781l6.695-0.277c0.709 0.16 2.519 1.499 4.647 3.074 0.039 0.551-0.039 0.789-0.59 1.417l-1.301 1.497 1.495 7.051c0 0 0 0 0 0-0.039 0-0.158 0.354-0.235 0.551 0 0-0.277 0.039-1.221 0.119-3.781-4.923-8.35-9.296-12.565-13.904l-6.814 8.114 2.206 9.333h3.15l4.843 5.001-0.119 1.024-5.945 6.578c13.863 1.024 27.806 0.551 41.707 0.59l-14.926-7.52 1.378-2.048-3.269-6.343c0 0 0 0 0 0 0.039 0 0-0.473 0.039-0.67 3.191-1.691 7.957-1.691 11.463-2.245l1.694-4.215c-0.041 0.238 3.742 0.315 3.938 0.315l2.441 2.048c0.946-0.866 2.402-2.007 3.742-2.203l2.482 0.039c0.866 0.315 3.191 2.009 6.933 4.766 0.235 1.182 0.354 1.97 0.473 3.191l-3.154 2.046 2.363 5.198c-1.141 1.735-5.632 3.193-7.483 3.979l10.359 8.862c0.235 0.197 0.277 0.631 0.158 0.866l-4.174 1.929c1.694 3.349 3.662 6.578 5.867 9.609l-12.8 3.39 3.465 4.686c0.747 2.679 1.536 5.397 2.283 8.073l-3.739 2.402c2.283 7.602 3.072 15.401 4.725 23.159l-0.866 0.631c-4.766-2.718-9.531-5.397-14.297-8.114l-6.142 5.358 5.593 5.829-8.311 9.531c-0.946 0.471-1.89 0.905-2.798 1.378v0l-0.078 0.039 3.703 6.971c1.653-0.905 7.915 0.944 9.925 1.339l6.025-3.899c-0.709-0.827-3.545-3.781-3.545-4.923 2.048-0.354 10.594-7.129 10.279-6.891l0.67 0.235c2.048 2.048 3.349 5.71 4.686 8.311l3.465-1.813 2.837-0.158c4.137 2.009 7.328 7.287 10.359 10.791l2.718-1.575c4.962 0.078 11.145 5.278 15.125 7.758l0.473 0.866c-2.994 3.742-5.867 7.522-8.823 11.342l5.829 7.129c-0.434 0.235-2.875 3.938-6.578 9.531l-7.678 2.366c4.254 3.072 8.114 6.578 11.579 10.555l3.269 0.235c3.269 0.985 8.469 4.885 11.854 7.207 2.837 0 5.71 0.512 8.389 1.497l5.751 9.767 1.417-10.752 1.97-0.473c-0.789-2.048-1.575-4.135-2.126-6.302l0.827-2.914c0 0.119 0.277-0.119 0.551-0.315 5.001 0.434 9.963 0.119 14.848-0.985l2.087-5.554-3.349-9.294c0.039 0 0.039 0 0.039 0 0.078 0 0.119-0.551 0.119-0.827l1.813-1.851-1.024-2.048 1.813-3.465 7.287-6.814h-15.163c-0.434-0.277-2.875-2.482-7.010-6.144-0.67-2.638-1.182-5.397-1.536-8.114l1.378-1.575-0.119-5.474-4.215-1.024 3.584-17.289c0.473-0.354 0.747-0.512 0.905-0.59l5.79 0.119 3.426-6.302c0.277-0.158 0.631-0.315 0.866-0.315l7.561 1.771c11.264 11.854 19.89 24.576 36.075 29.461l3.781-1.259c5.751 1.733 13.193 8.901 18.709 11.815l7.403-1.458c8.231 2.994 16.619 6.302 24.537 9.886l1.182-0.039c0.905 2.638 2.087 5.042 3.23 7.641l-3.033 3.387 3.938 2.718 1.655 12.169-0.551 1.417 0.551 1.497c-1.694 3.703-3.465 7.403-5.239 11.029l4.057 1.536 1.655 2.206 4.096-1.143 2.837 2.482c-3.111 2.126-6.498 3.545-10.162 4.215l0.789 2.599-0.197 1.179-0.747-3.861c-1.97-0.078-4.411-1.259-6.222-2.048l-1.143 4.135c-13.589 12.958-29.461 11.737-47.851 8.469-1.339 0.235-2.679 0.512-4.018 0.866-4.727-1.259-11.737-7.602-16.345-11.145l-2.994 3.899c-3.307-0.235-5.435 0.158-7.602 2.837-0.866 2.441-2.363 4.53-4.331 6.263-5.198 0-10.398-0.827-15.637-0.551l7.799 5.867c-0.315 0.786-0.944 1.456-2.638 1.929-2.363 0.315-4.686-0.158-6.341-1.733l-0.119-1.536c-3.111-2.048-11.541-9.451-14.533-9.451l-1.221 0.119c-1.694-0.315-2.441-0.985-2.56-1.733l-0.235-1.221c-1.339-1.259-2.441-2.718-3.269-4.373l-0.354-1.89c-3.269-1.813-6.498-3.861-9.531-6.025l-0.747 11.541c-1.024-4.018-11.698-10.555-14.533-13.785l0.434-1.655-1.458-3.861-4.293-1.536-1.737 2.48c-0.393 0.866-8.939 1.851-10.043 2.087 3.426 2.757 6.105 6.144 7.915 10.162-0.197-0.078-2.325-1.221-4.962-3.191l-4.882-8.743-3.504 2.206-6.263 0.59 3.742 5.239c0 0.59-1.259 1.614-1.851 2.087-1.143-1.063-2.482-1.89-3.899-2.482l-1.694 0.747c-0.866 0.277-1.536-0.078-1.81-0.313-2.128-2.206-4.254-4.45-6.302-6.775l-2.128 6.382c-6.971-0.078-13.547-1.694-19.691-4.885-1.575-0.747-2.521-2.914-2.955-4.53l-2.283-1.298c-7.68 1.417-29.657-3.899-32.059-12.21l3.387-2.914-3.23-3.072-4.215-8.153-4.016 10.951-1.929 0.747-0.315 1.813-0.827-0.827-1.616-0.551-2.361 1.259c-2.247 1.497-11.502-2.009-14.377-2.521 0.827 4.057 1.614 8.585 3.111 12.407-17.801-1.339-34.066-12.88-48.48-26.034-0.119 0.119-0.315 0.197-0.434 0.315 76.958 65.024 176.247 104.409 284.672 104.409 143.479 0 270.809-69.001 351.625-175.262-19.063 21.977-37.376 40.841-50.453 53.799-11.657 11.225-36.983 21.504-59.392 30.601-16.542 6.695-32.137 13.077-42.219 19.534l-1.221 0.789 0.158-0.393 1.771-1.458c3.15-2.482 7.010-5.71 10.162-8.626l4.018-2.994-4.018-3.033 1.536-1.063 15.595-14.729-21.346 8.901-9.177 6.971-0.905 1.536c-0.315 0.59-2.757 3.742-4.766 6.263l-1.301 1.614 0.631 1.97c0.197 0.315-0.158 0.789-0.354 0.946-0.59 0.512-0.631 0.551-7.445 3.781l-1.339-1.536-1.536 0.197c2.126-2.56 4.569-4.766 6.933-6.891l0.827-0.789c0.905-0.827 1.851-1.694 2.638-2.521 0.551-0.59 0.59-0.631 1.102-0.827l2.167-0.827 0.315-2.283c0.158-0.946 1.143-2.126 1.851-2.994 0.827-1.063 1.143-1.497 1.575-2.087 0.553-0.706 4.846-3.029 14.299-8.19l3.23 1.771 1.89-1.301c0.235-0.158 0.551-0.354 0.985-0.631l4.331-2.441-3.387-3.662 0.197-1.259 0.631-7.403-13.39 7.561 0.277-6.617-5.317 3.15c-1.417 0.709-2.875 1.339-4.293 1.97-2.402 1.063-3.977 1.813-5.632 2.638l-7.957 1.458-1.536-0.866-1.89 0.315-4.411 1.417-5.79 3.269-7.090 1.301-5.2 0.039-1.458-4.135-5.671-1.813-0.274-0.983-4.174-6.971 0.315-3.269-1.378-15.163 0.434-2.599-2.167-1.575-7.561-9.847 10.791-16.619 1.89-4.373c1.575-1.339 4.411-1.813 6.933-2.245l4.647-0.789-0.041-3.781-0.709-6.222 3.899-5.081 1.771-3.899-3.703-2.441-5.593-1.97-3.938-5.198-1.771-0.119-2.402-2.837-1.063-2.757-12.327-28.869 5.355 34.501c-0.631 1.221-7.246 7.561-19.221 19.102l-1.102 1.102-1.223 8.981c-0.393 0.277-3.191 1.655-5.474 2.757l-1.378 0.709-1.378 3.584c-0.158 0.199-0.277 0.354-1.259 0.434l-4.489-0.039c-0.631-1.733-1.536-6.498-2.679-12.761 0.235-0.985 0.512-1.458 0.789-1.97l3.307-5.867-10.005-0.393-2.482-1.182c-0.277-0.119-0.631-0.277-1.143-0.551l-1.97-1.458h-1.143c-0.512-0.197-1.694-1.458-2.795-2.718 0.354 0.277 0.197-0.158 0.235-0.393l0.946-4.057h-0.037c0.039 0 0.277-0.197 0.827-0.631l3.23-2.482-2.599-3.15-1.301-6.734c0.393-0.473 0.827-0.827 1.378-0.827l9.689 2.126 8.27 3.977 5.397 4.373 2.283-10.437-3.269-2.953-2.009-5.278c0.67-0.827 1.378-0.946 1.813-0.985h2.795l7.248 2.443-3.15-7.403-1.339-4.45 0.946-4.962c-0.039 0.551 0.631-0.434 0.905-0.747 1.89 0 3.662-0.039 5.397-0.039h1.497l9.57-8.585-0.827-5.159 0.905-4.569 1.221-5.751-5.751 1.063c-3.307 0.59-4.174 0.747-16.661 2.482-1.929 0.354-2.875 0.551-6.891 1.301l-1.102-0.434-1.143-2.599-2.206-1.225-2.482-0.512c0.119-0.078-0.277-0.631-0.59-0.985l0.631-4.727c0.512-3.781 1.063-7.877 1.536-11.342l0.078-0.631-0.158-0.631-2.718-13.943 0.354-2.087 3.111-3.545 3.387-9.689c0.078-0.235 0.709-0.631 1.378-0.631l8.665 1.851 6.933-8.073-24.891-22.843-3.819-16.935-16.542-12.407-7.918-3.385c-2.875-6.775-7.561-14.967-11.737-22.174-2.087-3.623-3.781-6.617-5.593-9.925l-8.311-19.022c0.158-2.206 0.158-3.349 0.158-4.647l3.072-5.867 2.679-19.456-11.342-23.355 5.513-5.79-0.119-11.029 3.349-5.751 4.923-6.025 11.303-16.896 6.853-5.554 9.413-10.633 16.503-9.847 5.751-5.159c2.048 0.078 4.096 0.946 5.829 1.851l1.024 0.315 11.737 2.009 18.866 0.078 17.289 2.009 0.551-0.158 1.97 0.473 7.403 4.373 8.114 0.078 7.246 1.813 5.001-14.494 14.414 1.378 6.775-10.162 1.301-3.623-6.222-13.863c-1.733 1.417-3.465 2.837-6.025 2.837-0.158 0-0.827 0-0.946 0-5.159-0.789-9.216-4.293-10.318-9.058-0.827-3.938 0.551-7.719 3.623-9.925 1.694-1.221 3.662-1.851 5.751-1.851 2.325 0 4.411 0.946 6.302 2.206l7.758-21.070 1.024-6.695-3.545-1.929 4.096 0.277c0.235-0.67 0.512-1.378 0.709-2.441l0.827-3.623-2.325-7.799-4.686-26.702-7.758-7.365-4.411-11.029-3.781-1.536c0.078 0-0.512-0.473-0.709-0.59l-5.317-13.589 2.441-11.145-0.235-0.905c-4.096-16.149-9.138-33.28-13.115-44.702l-0.551-3.15-3.349-9.451c-1.614-3.506-2.167-4.647-4.805-9.886l-0.747-0.985-3.545-3.506c-1.378-1.733-2.875-4.727-4.215-7.403l-1.575-3.072c1.301-0.473 2.482-0.473 3.781-0.473 1.143 0.473 2.402 1.182 3.545 1.851l2.283 1.063c6.617 1.378 13.785 2.837 20.007 4.293l11.106 5.474 18.983 13.705 3.191-2.521-2.283 3.23c2.167 1.497 6.891 4.923 8.153 6.066l13.234 14.494 4.331 3.111h3.23c1.024 0.551 2.325 1.771 3.426 2.914l11.145 11.934 9.138 17.25h2.206c1.733 0.59 3.072 2.167 3.938 3.111l2.679 2.402c5.12 3.899 10.201 7.915 13.705 10.674l2.087 1.694h1.378l12.327 6.144-0.315 0.551-4.331 2.599 2.875-1.378-2.718 1.614 9.767 16.345 3.387-1.97c0.315-0.197 0.905-0.315 1.378-0.393l5.198 3.899 0.789 3.191c-0.512 0.551-1.339 0.59-2.087 0.59h-7.483l2.087 5.751c0.315 0.631 0.631 1.221 0.866 1.89 0.67 1.339 1.221 2.56 1.733 3.819l1.221 2.599 0.235 3.15 5.474 15.675 1.221 5.435 4.686 8.114 2.441 2.679c1.378 3.623 2.245 6.144 2.795 8.073l0.393 0.905 8.034 12.839 0.985 0.473 13.627 21.662 4.174 2.048 8.192 18.393c3.938 8.782 7.719 19.102 8.073 20.48l2.325 10.633c1.694 7.995 3.465 16.306 4.411 22.725l-0.473 4.962-4.608-4.096c-2.283-1.733-3.938-2.953-5.554-4.096l-4.018-2.914-1.929 4.608-1.301 1.301 0.277 4.373-0.473 3.545 3.426 0.789 11.029 9.255 7.68 14.336c0.119 1.221 0.197 2.206 0.277 3.033l0.158 1.929 1.694 1.614 3.662 10.279 0.434 4.843c0.866 9.138 1.89 19.456 2.126 28.279l-6.066 23.71 3.703 1.063c0.59 0.354 1.301 0.551 2.048 0.551 2.283 0 3.426-1.536 5.001-3.662 2.325-3.072 6.537-8.743 11.618-8.743 2.126 0 4.373 0.985 6.775 2.914 7.049 5.71 12.407 12.327 16.265 19.733 3.703-22.962 6.144-46.395 6.144-70.421 0.007-243.797-198.256-442.059-441.968-442.059zM329.886 757.445l4.057 1.536 7.602-2.087-4.018-4.923c-7.602-7.957-9.216-14.258-19.691-17.723l-8.942-15.122-18.235-6.617c-1.813-2.875-3.504-5.79-5.040-8.784l-3.072 7.719 0.039 0.039c-3.938 5.397-6.537 11.383-7.719 17.959l-6.302 2.443 5.435 4.057 0.434 3.662c10.791 9.847 23.749 14.494 37.022 19.89 0.512 0.551 0.866 0.827 1.143 1.063l0.67 3.15 13.465-0.235-0.747-5.591c1.536-0.434 2.679-0.434 3.899-0.434zM341.504 757.799c1.259 4.608 1.575 9.493 0.789 14.139l16.818 3.426 12.681 12.091c4.489-1.614 8.981-3.15 13.47-4.647l-10.005-8.981-3.899-5.198-9.808-0.080c-5.198-3.623-9.333-8.704-11.931-14.571-2.521 1.655-5.239 2.953-8.114 3.819zM725.385 579.033h0.039l-1.298 6.814-2.837 2.363-5.947 3.307-7.010-2.167-32.846-2.126-22.882-8.469h-15.557l5.435 7.68 2.167 1.024 7.877 1.221 8.585 7.957c1.221 1.458 2.283 2.638 3.387 3.703l-3.307 10.162 1.536 4.805 12.011 4.766 1.497 8.823 1.259 2.599 12.958-1.929 5.278 4.096h11.029l-6.695-7.799c0 0 0 0 0.039 0 0 0 0-0.512 0.158-1.497 0.277-1.102 0.59-2.482 0.827-3.861l1.575-1.655-0.277-2.718c0-0.078-0.078-0.393 0.039-1.143l2.009-9.177c0.119-0.59 0.315-0.789 1.259-0.985l5.947 2.953c-0.119 0.631-0.631 2.087-2.363 7.799-0.078 0.235-0.235 0.551-0.827 0.827l-3.387 1.417 1.143 3.465c0.277 0.827 0.59 1.851 0.866 3.072l0.67 1.655 2.679 4.057 9.806-10.121 16.265-9.886 4.215-10.674-15.595 2.679c0.432-0.078-0.354-0.393-0.67-0.549 0.119-0.985 0.277-1.851 0.59-3.426 2.206-2.837 6.027-5.358 9.138-7.367l7.719-5.042h0.039c0.158 0.039 0.315 0.434 0.354 0.946v9.177l2.795 0.827 3.15 7.129-3.502 7.483h6.183l3.819 3.111 4.293-7.129 1.771-0.197 5.355-7.758 2.167-0.473 1.733-2.206 4.057-7.641 1.182-0.789 3.819 0.078 4.727 4.569c-0.119 1.458-0.315 2.402-0.512 3.387l-0.706 1.104 6.144 4.882 0.827-0.946c1.143-1.259 1.771-2.009 2.087-2.325l0.946-1.301 3.819-8.153-0.235 3.465 8.665-8.782 6.656 2.048 1.97 1.694 2.126-1.378 4.373-2.206-2.56-4.096c-0.235-0.512-0.039-1.221 0.512-1.733 0.315-0.197 1.339-0.827 5.081-3.033l2.087 2.402 5.001 6.578 1.97-8.034c0.393-1.536 0.827-3.072 1.221-4.569l0.158-0.59-0.946-20.757-14.178 4.569-3.742-6.578-16.384 6.578c-2.167-0.039-4.096-0.078-5.751-0.078h-2.283l-2.206 3.819c-4.018 0.512-7.010 0.512-10.475 0.512l-3.781-2.363-2.048-12.169-20.48 12.288c-0.473 0.119-0.905 0.315-1.024 0.393l-17.842 4.647-0.551-17.605-3.506 19.063-4.135 1.536 2.325 4.057c-0.16 3.705-0.633 6.974-1.067 9.888zM697.778 721.527l1.733 4.057 1.614 7.995v6.103l11.854-5.159 3.742 0.946 0.789-3.662c0.512-1.813 1.143-2.994 2.009-4.45l3.269-2.245-0.827-2.837 5.042-14.848-7.246 2.048c-1.378 0.393-3.819 0.119-7.129-0.789-0.827-0.235-1.733-0.473-2.56-0.67l-9.058-3.623-1.378-1.221-3.426 0.709-14.217 2.482 13.547 5.081c0.67 0.235 1.182 0.434 1.694 0.59l1.259 0.393-0.709 9.097zM784.149 638.11l0.985 1.259c0.315 0.747 0.393 1.024 0.393 1.929l1.182 17.881 6.421-10.713c3.977-3.819 6.379-6.105 7.049-6.459l1.929 3.191 2.914 4.018 3.23-3.703 23.906-18.393-15.595-2.441-1.301 0.946c-1.851 1.378-3.977 2.875-4.489 3.111-1.929-0.866-4.096-1.733-6.379-2.638l-8.939-3.465-4.805 0.277-6.066 7.365-0.59 1.417 0.315 2.009c0.119 0.315 0.197 0.709 0.235 1.143l-0.395 3.266z" />
<glyph unicode="&#xe005;" glyph-name="shipping" horiz-adv-x="1157" d="M311.607 695.808c-0.222 0.267-0.622 0.267-0.889 0.535l-5.609 140.288c-0.357 5.12-4.944 14.247-15.762 14.247-11.131 0-15.627-9.173-15.806-14.293l-7.746-160.544c-0.043-0.981 0.4-1.826 0.489-2.805-2.67-7.927-2.181-15.406 2.672-19.68l99.461-87.129c3.653-3.25 14.293-5.253 24.443 4.898s7.925 20.569 4.674 24.265l-85.927 100.217zM1123.461 430.014l-99.461 132.674c-20.347 24.533-34.103 44.521-66.782 44.521h-200.347c-24.533 0-44.521-19.991-44.521-44.521v-445.218c0-24.443 19.856-44.299 44.254-44.478 10.953 76.711 76.443 136.059 156.094 136.059 79.694 0 145.186-59.392 156.094-136.103h44.254c24.533 0 44.521 19.991 44.521 44.521 0 0 0 180.446 0 222.608s-34.105 89.936-34.105 89.936zM845.913 340.080v178.087h108.901c7.168 0 17.141-10.507 17.141-10.507l93.719-129.737c8.325-12.199 17.319-26.713 17.319-37.845l-237.079 0.002zM275.456 50.688c-0.014-0.629-0.022-1.371-0.022-2.115 0-56.873 46.105-102.978 102.978-102.978s102.978 46.105 102.978 102.978c0 0.744-0.008 1.485-0.024 2.225 0.016 0.519 0.024 1.261 0.024 2.004 0 56.873-46.105 102.978-102.978 102.978s-102.978-46.105-102.978-102.978c0-0.744 0.008-1.485 0.024-2.225zM809.717 50.688c-0.014-0.629-0.022-1.371-0.022-2.115 0-56.873 46.105-102.978 102.978-102.978s102.978 46.105 102.978 102.978c0 0.744-0.008 1.485-0.024 2.225 0.016 0.519 0.024 1.261 0.024 2.004 0 56.873-46.105 102.978-102.978 102.978s-102.978-46.105-102.978-102.978c0-0.744 0.008-1.485 0.024-2.225zM623.305 696.254h-49.063c-11.399 147.545-134.546 263.746-284.85 263.746-158.098 0-286.009-128.043-286.009-286.007 0-79.918 32.814-152.087 85.662-204v-352.523c0-24.533 19.991-44.521 44.521-44.521h88.777c10.907 76.711 76.4 136.103 156.094 136.103s145.186-59.392 156.094-136.103h88.777c24.533 0 44.521 19.991 44.521 44.521v534.261c-0.002 24.533-19.993 44.523-44.523 44.523zM289.392 468.391c-123.28 0-201.061 82.32-201.061 205.602s79.205 196.962 202.441 196.962c123.326 0 199.637-74.263 199.637-197.589s-77.737-204.976-201.017-204.976z" />
<glyph unicode="&#xe006;" glyph-name="payments" horiz-adv-x="985" d="M872.297 467.038h-530.962c-62.805 0-113.778-50.935-113.778-113.778v-303.408c0-62.805 50.971-113.778 113.778-113.778h530.962c62.805 0 113.778 50.896 113.778 113.703v303.486c-0.002 62.843-50.974 113.776-113.778 113.776zM925.392 49.854c0-29.241-23.856-53.058-53.097-53.058h-530.962c-29.241 0-53.097 23.817-53.097 53.058v151.703h637.193l-0.037-151.703zM288.238 315.335v37.927c0 29.278 23.856 53.097 53.097 53.097h530.962c29.241 0 53.097-23.817 53.097-53.097v-37.927h-637.157zM819.465 542.891l-71.605 292.409c-14.942 61.022-80.023 101.717-141.083 86.736l-512.19-129.518c-60.985-14.905-98.455-76.535-83.474-137.557l72.135-294.683c9.065-37.129 35.499-65.271 68.457-78.43v71.415c0 104.562 85.067 189.63 189.63 189.63l478.13-0.002zM678.683 758.043l31.403-128.418-128.418-31.44-31.403 128.379 128.418 31.479z" />
<glyph unicode="&#xe007;" glyph-name="launch" d="M0 192c0-146.313 109.712-256 109.712-256l126.597 158.85-39.385 307.922c-50.425-27.659-196.923-119.086-196.923-210.773zM402.288 54.153l-73.15-117.378h365.712l-73.163 117.378h-219.399zM827.077 402.615l-39.385-309.077 126.622-157.538c0 0 109.687 109.687 109.687 256 0 91.543-146.313 182.85-196.923 210.615zM512 960c-88.629-4.135-328.231-160.4-275.691-472.615l57.831-393.847h437.287l56.265 393.847c52.539 312.215-187.077 468.48-275.691 472.615zM512 302.501c-50.505 0-91.424 40.96-91.424 91.424 0 37.941 23.001 70.368 55.808 84.231 10.987 4.686 23.040 7.207 35.616 7.207 50.505 0 91.424-40.96 91.424-91.438 0-50.464-40.919-91.424-91.424-91.424zM512 595.074c-50.505 0-91.424 40.96-91.424 91.424 0 37.927 23.001 70.368 55.808 84.217 10.987 4.702 23.040 7.209 35.616 7.209 50.505 0 91.424-40.96 91.424-91.424s-40.919-91.426-91.424-91.426z" />
<glyph unicode="&#xe008;" glyph-name="share" horiz-adv-x="1152" d="M986.667 576c0 142.848 0 265.6 0 298.667 0 85.333-43.349 85.333-85.333 85.333-84.651 0-90.667-341.333-554.667-341.333h-213.335c-70.656 0-128-57.344-128-128v-85.333c0-70.656 57.344-128 128-128h15.659c0.171-0.469 35.755-118.613-13.013-161.707-70.571-62.336-52.224-139.008 10.283-136.917h77.355c21.291 0 42.667 19.157 47.616 42.667l62.846 255.954h12.587c466.688 0 468.523-341.333 554.667-341.333 43.264 0 85.333 0 85.333 85.333 0 42.667 0 155.947 0 298.667 70.656 0 128 57.344 128 128s-57.344 128-128 128zM346.667 448h-213.335c0 84.779 63.445 85.333 63.445 85.333h149.89v-85.333zM901.333 576v-516.352c-59.648 100.437-167.211 271.915-469.333 299.307v178.133c300.501 27.435 409.045 198.528 469.333 299.093v-260.181zM517.333 448c164.053 0 298.667 38.059 298.667 38.059v130.089c0 0-133.717-125.481-298.667-125.481v-42.667z" />
<glyph unicode="&#xe009;" glyph-name="facebook" horiz-adv-x="1063" d="M938.261 954.526h-829.559c-48.050 0-87.040-39.070-87.040-87.12v-829.362c0-48.247 38.99-87.118 87.079-87.118h457.097v449.339h-98.501v142.455h98.501v95.744c0 42.142 1.063 107.285 31.705 147.534 32.295 42.731 76.642 71.719 152.93 71.719 124.101 0 176.482-17.685 176.482-17.685l-24.654-145.957c0 0-41.038 11.854-79.321 11.854s-72.546-13.627-72.546-51.947v-111.262h156.987l-10.91-142.455h-146.078v-449.339h187.826c48.089 0 87.118 38.873 87.118 87.118v829.362c0 48.050-39.031 87.12-87.118 87.12z" />
<glyph unicode="&#xe00a;" glyph-name="previous" horiz-adv-x="1312" d="M31.787 395.285l499.925-428.555c29.429-29.152 87.776-29.131 117.205 0.032 29.419 29.184 19.573 76.469-9.867 105.621l-321.653 274.167c0 0-34.24 29.344-67.723 29.291l986.219 0.288c40.021 0.203 73.44 32.789 73.6 72.832 0.16 40.032-32.992 72.32-73.024 73.227l-991.627-2.027c0.053-1.099 0.117 0.939 0.181 0.939 42.997 0.011 66.005 23.765 66.005 23.765l317.154 279.925c29.408 29.163 39.221 76.459 9.792 105.6-29.429 29.163-87.797 29.141-117.205-0.032l-489.024-429.312c-14.741-14.624-22.091-33.769-22.048-52.905-0.011-19.127 7.339-38.251 22.091-52.855z" />
<glyph unicode="&#xe00b;" glyph-name="fb" d="M440.013 38.4v384h-102.17v128h102.17v128.051c0 93.363 60.365 179.149 199.398 179.149 56.294 0 97.946-5.402 97.946-5.402l-3.251-129.946c0 0-42.419 0.384-88.806 0.384-50.125 0-58.163-23.117-58.163-61.491v-110.746h150.989l-12.8-128h-138.189v-384h-147.123z" />
<glyph unicode="&#xe00c;" glyph-name="twitter" d="M1024 765.582c-37.675-16.709-78.165-28.002-120.661-33.081 43.371 26 76.686 67.17 92.373 116.231-40.597-24.078-85.557-41.561-133.41-50.981-38.32 40.83-92.921 66.341-153.346 66.341-116.023 0-210.087-94.057-210.087-210.078 0-16.466 1.858-32.501 5.44-47.879-174.601 8.763-329.401 92.4-433.017 219.506-18.085-31.029-28.446-67.115-28.446-105.618 0-72.889 37.088-137.193 93.461-174.866-34.439 1.093-66.832 10.542-95.154 26.279-0.021-0.875-0.021-1.755-0.021-2.642 0-101.787 72.418-186.697 168.521-206-17.625-4.8-36.187-7.371-55.349-7.371-13.538 0-26.697 1.321-39.527 3.771 26.736-83.461 104.32-144.206 196.251-145.895-71.899-56.35-162.487-89.934-260.917-89.934-16.958 0-33.68 0.994-50.117 2.939 92.971-59.609 203.401-94.393 322.041-94.393 386.423 0 597.737 320.123 597.737 597.744 0 9.109-0.206 18.167-0.61 27.179 41.056 29.621 76.672 66.619 104.837 108.747z" />
<glyph unicode="&#xe00d;" glyph-name="chain" d="M402.382 207.666l-41.472-41.166c-35.943-35.584-94.361-35.634-130.254 0-17.255 17.152-26.727 39.833-26.727 64.050s9.522 46.951 26.727 64.103l152.576 151.399c31.591 31.385 91.086 77.518 134.45 34.51 19.918-19.762 52.071-19.609 71.783 0.256 19.762 19.865 19.662 52.018-0.256 71.783-73.678 73.113-182.631 59.598-277.504-34.51l-152.576-151.399c-36.555-36.35-56.729-84.683-56.729-136.139 0-51.406 20.174-99.737 56.782-136.089 37.682-37.426 87.141-56.064 136.601-56.064s99.022 18.638 136.704 56.064l41.472 41.216c19.918 19.762 20.018 51.918 0.256 71.73-19.765 19.867-51.918 19.968-71.833 0.256zM864.818 795.698c-79.154 78.542-189.799 82.791-263.118 10.087l-51.662-51.25c-19.918-19.762-20.071-51.865-0.306-71.783 19.815-19.918 51.918-20.018 71.783-0.256l51.662 51.25c37.938 37.682 87.655 22.066 120.114-10.087 17.255-17.102 26.727-39.886 26.727-64.050 0-24.217-9.522-46.951-26.727-64.050l-162.816-161.486c-74.393-73.831-109.362-39.218-124.263-24.423-19.918 19.762-52.018 19.609-71.73-0.256-19.762-19.918-19.662-52.071 0.256-71.783 34.151-33.895 73.216-50.688 114.073-50.688 50.073 0 102.962 25.191 153.241 75.111l162.766 161.486c36.608 36.302 56.782 84.633 56.782 136.039s-20.174 99.787-56.782 136.139z" />
<glyph unicode="&#xe00e;" glyph-name="box" horiz-adv-x="1063" d="M513.851 954.683l-489.669-193.301v-529.093l590.77-290.382 433.23 290.382v529.093l-534.331 193.301zM884.459 539.806l-78.926-51.003c-12.327-7.995-22.962-3.23-23.474 10.713-0.473 13.982 9.335 31.547 21.739 38.873l79.163 47.301c10.24 6.183 18.709 0.866 19.141-11.541 0.395-12.327-7.442-27.609-17.643-34.343zM638.503 543.035l-479.429 186.919 170.731 67.387 455.403-176.679-146.706-77.627zM608.887 32.69l-505.936 248.633v426.457l2.283 0.905 509.717-198.734v-473.207l-6.064-4.055zM831.33 645.081l-447.527 173.607 131.269 51.79 440.832-159.506-124.574-65.89z" />
<glyph unicode="&#xe00f;" glyph-name="checkmark" d="M864 832l-480-480-224 224-160-160 384-384 640 640z" />
<glyph unicode="&#xe010;" glyph-name="show" d="M1024 447.37c0-35.407-28.672-64.079-64.079-64.079h-897.063c-35.328 0-64.079 28.672-64.079 64.079v0c0 35.328 28.711 64.079 64.079 64.079h897.063c35.407 0 64.079-28.711 64.079-64.079v0zM447.291 895.921c0 35.367 28.751 64.079 64.079 64.079v0c35.407 0 64.079-28.711 64.079-64.079v-897.063c0-35.407-28.672-64.079-64.079-64.079v0c-35.328 0-64.079 28.672-64.079 64.079v897.063z" />
<glyph unicode="&#xe011;" glyph-name="hide" d="M1024 447.37c0-35.407-28.672-64.079-64.079-64.079h-897.063c-35.328 0-64.079 28.672-64.079 64.079v0c0 35.328 28.711 64.079 64.079 64.079h897.063c35.407 0 64.079-28.711 64.079-64.079v0z" />
<glyph unicode="&#xe012;" glyph-name="cloud" horiz-adv-x="1330" d="M499.762-13.465c-114.585 0-215.449 72.039-253.543 176.178-133.17 16.231-236.594 129.077-236.594 265.525 0 121.856 82.176 226.048 197.12 257.586 22.016 154.471 156.569 273.92 317.952 273.92 100.914 0 194.354-46.542 254.567-124.263 33.486 15.41 69.888 23.449 107.57 23.449 108.185 0 204.594-68.402 241.305-166.912 112.437-27.289 193.486-127.232 193.486-245.298 0-139.058-113.92-252.21-254.055-252.519-30.926-97.177-121.703-165.479-228.711-165.479-51.047 0-99.737 15.872-140.082 44.8-50.482-54.731-122.368-86.987-199.015-86.987zM327.374 263.886l8.242-41.778c15.257-77.159 84.274-133.223 164.146-133.223 61.184 0 117.454 32.974 146.894 86.066l36.814 66.51 47.822-59.086c26.368-32.615 65.536-51.303 107.57-51.303 71.474 0 130.354 52.889 136.96 122.983l5.273 56.37 55.552-10.905c9.984-1.998 20.224-2.969 30.361-2.969 83.918 0 152.217 67.328 152.217 150.119 0 77.209-58.624 141.465-136.295 149.401l-36.967 3.79-7.886 36.249c-15.154 69.735-78.798 120.37-151.246 120.37-33.792 0-65.945-10.702-93.031-30.926l-47.664-35.584-28.11 52.377c-38.091 70.965-112.126 114.997-193.33 114.997-119.808 0-217.959-96.306-218.727-214.631l-0.306-45.568-45.312-5.017c-84.583-9.319-148.327-79.769-148.327-163.89 0-91.033 75.058-165.12 167.271-165.12l48.078 0.768z" />
<glyph unicode="&#xe013;" glyph-name="upload" d="M315.077 644.923c0 65.234 52.907 118.153 118.153 118.153h157.538c65.248 0 118.153-52.919 118.153-118.153v-393.847c0-65.273-52.907-118.153-118.153-118.153h-157.538c-65.248 0-118.153 52.88-118.153 118.153v393.847zM424.985 882.005c86.843 86.882 85.792 86.658 172.466 0l258.69-258.69c47.552-47.655 36.642-57.161-18.93-57.161h-652.235c-50.151 0-66.272 9.504-18.709 57.161l258.718 258.69zM945.23 211.691v-157.538c0-21.687-17.657-39.385-39.385-39.385l-787.691 0.002c-21.728 0-39.385 17.696-39.385 39.385v157.538l-78.768-0.002v-157.538c0-65.234 52.919-118.153 118.153-118.153h787.691c65.234 0 118.153 52.919 118.153 118.153v157.538h-78.768z" />
<glyph unicode="&#xe014;" glyph-name="close" horiz-adv-x="1013" d="M865.65 932.802l-357.445-360.617-358.005 361.168c-33.387 33.691-87.513 33.691-120.91 0-33.399-33.68-33.399-88.299 0-121.991l418.377-422.091c16.722-16.88 38.654-25.296 60.562-25.25 21.897-0.023 43.797 8.395 60.517 25.262l417.826 421.541c33.387 33.68 33.387 88.288 0 121.979-33.41 33.691-87.536 33.691-120.923 0zM150.201-34.946l357.445 360.617 357.995-361.179c33.387-33.68 87.513-33.68 120.91 0s33.399 88.299 0 121.991l-418.366 422.091c-16.722 16.88-38.642 25.296-60.562 25.262-21.897 0.011-43.797-8.407-60.505-25.273l-417.826-421.527c-33.387-33.68-33.387-88.288 0-121.979 33.397-33.691 87.522-33.691 120.91-0.002z" />
<glyph unicode="&#xe015;" glyph-name="rates" d="M315.077 129.234c-169.458 0-306.846 75.593-307.621 169.051-0.039-35.655-0.064-66.901-0.064-66.901 0-93.826 137.728-169.854 307.698-169.854s307.698 76.025 307.698 169.854v67.689c-0.014-93.829-137.753-169.84-307.712-169.84zM315.077 11.081c-169.458 0-306.846 75.593-307.621 169.051-0.039-35.657-0.064-66.903-0.064-66.903 0-93.826 137.728-169.854 307.698-169.854s307.698 76.025 307.698 169.854v67.689c-0.014-93.826-137.753-169.838-307.712-169.838zM708.923 208.002c-9.886 0-19.653 0.302-29.303 0.814-0.421-2.928-0.302-5.986-0.88-8.862 1.995-5.973 3.113-12.379 3.113-19.035v-39.87c8.912-0.421 17.92-0.747 27.070-0.747 169.959 0 307.698 76.025 307.698 169.854v67.689c0-93.829-137.742-169.842-307.698-169.842zM708.923 326.158c-9.886 0-19.653 0.302-29.303 0.814-0.421-2.928-0.302-5.986-0.88-8.862 1.995-6 3.113-12.379 3.113-19.035v-39.87c8.912-0.421 17.92-0.75 27.070-0.75 169.959 0 307.698 76.025 307.698 169.854v67.689c0-93.829-137.742-169.84-307.698-169.84zM708.923 562.464c-169.458 0-306.846 75.593-307.621 169.051-0.039-35.655-0.066-66.901-0.066-66.901 0-40.080 25.312-76.853 67.349-105.906 42.574-11.632 80.423-28.002 111.957-48.311 39.109-9.938 82.498-15.634 128.382-15.634 169.959 0 307.698 76.025 307.698 169.854v67.687c0-93.826-137.742-169.84-307.698-169.84zM708.923 444.311c-20.69 0-40.882 1.154-60.43 3.307 15.609-21.582 26.151-45.095 30.654-70.169 9.808-0.526 19.733-0.841 29.776-0.841 169.959 0 307.698 76.025 307.698 169.854v67.689c0-93.829-137.742-169.84-307.698-169.84zM708.923 952.608c-169.959 0-307.698-76.025-307.698-169.854s137.739-169.838 307.698-169.838 307.698 76.025 307.698 169.854-137.742 169.838-307.698 169.838zM315.077 519.378c-169.959 0-307.698-76.025-307.698-169.854s137.742-169.838 307.698-169.838 307.698 76.025 307.698 169.854-137.739 169.838-307.698 169.838z" />
<glyph unicode="&#xe016;" glyph-name="dropdown" horiz-adv-x="585" d="M585.143 338.286q0-14.857-10.857-25.714l-256-256q-10.857-10.857-25.714-10.857t-25.714 10.857l-256 256q-10.857 10.857-10.857 25.714t10.857 25.714 25.714 10.857h512q14.857 0 25.714-10.857t10.857-25.714zM585.143 557.714q0-14.857-10.857-25.714t-25.714-10.857h-512q-14.857 0-25.714 10.857t-10.857 25.714 10.857 25.714l256 256q10.857 10.857 25.714 10.857t25.714-10.857l256-256q10.857-10.857 10.857-25.714z" />
<glyph unicode="&#xe018;" glyph-name="arr-down" horiz-adv-x="1737" d="M1486.306 913.303l-613.723-619.173-614.69 620.119c-57.326 57.847-150.258 57.847-207.602 0-57.344-57.826-57.344-151.609 0-209.456l718.345-724.722c28.711-28.981 66.366-43.433 103.984-43.376 37.598-0.018 75.195 14.432 103.888 43.394l717.399 723.755c57.326 57.826 57.326 151.591 0 209.438-57.342 57.865-150.274 57.865-207.6 0.021z" />
<glyph unicode="&#xe019;" glyph-name="cash" d="M157.538 448v-512h866.383v512h-866.383zM960.906 109.292c0 0-31.98-23.71-35.446-23.71-28.239 0-51.082-22.922-51.082-51.161 0-3.466-23.788-35.446-23.788-35.446h-519.759c0 0-23.749 31.98-23.749 35.446 0 28.239-22.882 51.082-51.121 51.082-3.466 0-35.446 23.788-35.446 23.788v165.415c0 0 31.98 23.788 35.446 23.788 28.239 0 51.082 22.843 51.082 51.082 0 3.466 23.749 35.446 23.749 35.446h519.798c0 0 23.788-31.98 23.788-35.446 0-28.239 22.843-51.082 51.082-51.082 3.466 0 35.446-23.788 35.446-23.788v-165.415zM897.772 192c0-28.212-22.87-51.082-51.082-51.082s-51.082 22.87-51.082 51.082c0 28.212 22.87 51.082 51.082 51.082s51.082-22.87 51.082-51.082zM745.236 192c0-74.26-69.192-134.459-154.545-134.459s-154.545 60.199-154.545 134.459c0 74.26 69.192 134.459 154.545 134.459s154.545-60.199 154.545-134.459zM385.851 192c0-28.212-22.87-51.082-51.082-51.082s-51.082 22.87-51.082 51.082c0 28.212 22.87 51.082 51.082 51.082s51.082-22.87 51.082-51.082zM787.574 590.651c0-28.212-22.87-51.082-51.082-51.082s-51.082 22.87-51.082 51.082c0 28.212 22.87 51.082 51.082 51.082s51.082-22.87 51.082-51.082zM98.462 448c0 32.61 26.466 59.077 59.077 59.077h32.295l457.374 254.7c0 0 36.155-16.62 37.849-19.653 13.548-24.812 44.623-33.831 69.396-20.283 2.993 1.654 42.457-3.86 42.457-3.86l79.478-145.014c0 0-16.62-36.194-19.692-37.849-11.54-6.302-19.22-16.62-23.237-28.081h150.843l-101.77 186.014-113.546 207.242-759.966-416.138 89.442-163.328v127.173zM447.409 585.61c-34.304-18.786-58.998-47.183-72.901-78.533h284.83c-2.324 12.012-5.711 23.788-11.776 34.855-35.722 65.142-125.322 84.677-200.153 43.678z" />
<glyph unicode="&#xe01a;" glyph-name="check" horiz-adv-x="1067" d="M1033.239 883.223l-94.914 64.421c-26.078 17.637-61.918 10.901-79.643-15.088l-464.418-685.008-213.538 213.538c-22.142 22.142-58.64 22.142-81.033 0l-81.010-81.168c-22.368-22.368-22.368-58.731 0-81.168l328.226-328.226c18.363-18.386 47.241-32.585 73.319-32.585 25.986 0 52.224 16.361 69.063 40.914l559.264 824.793c17.637 26.078 10.809 61.851-15.314 79.577z" />
<glyph unicode="&#xe600;" glyph-name="google" d="M609.075 475.392c0 53.248 117.222 68.736 117.222 193.92 0 75.136-6.938 120.422-66.074 147.072 0 18.662 104.422 6.4 104.422 41.216-18.074 0-228.736 0-228.736 0s-231.603-5.709-231.603-201.779c0-196.096 202.47-173.338 202.47-173.338s0-29.696 0-49.741c0-20.070 27.187-13.312 30.515-53.99-13.645 0-281.293 7.117-281.293-170.496s235.878-169.088 235.878-169.088 272.768-12.39 272.768 208.179c0 132.096-155.571 174.746-155.571 228.045zM411.418 644.454c-21.35 78.771 6.835 155.008 63.104 170.291 56.192 15.283 119.168-36.147 140.544-114.918 21.376-78.746-6.758-154.982-63.053-170.291-56.192-15.283-119.168 36.173-140.595 114.918zM528.589 95.872c-94.438-6.4-174.771 44.262-179.43 113.126-4.659 68.838 68.122 129.843 162.56 136.294 94.413 6.349 174.72-44.262 179.456-113.152 4.685-68.89-68.147-129.869-162.586-136.269z" />
<glyph unicode="&#xe601;" glyph-name="paypal" d="M496.246 381.046h-78.769c-7.877 0-19.692-7.877-19.692-15.754 0 0-47.262-307.2-51.2-326.892 0-11.815 7.877-23.631 19.692-23.631h122.092c15.754 0 31.508 11.815 31.508 27.569l27.569 185.108c3.938 15.754 15.754 27.569 31.508 27.569h19.692c133.908 0 240.246 55.138 271.754 216.615 11.815 66.954 7.877 141.785-51.2 181.169-7.877-110.277-66.954-271.754-322.954-271.754zM417.477 420.431h78.769c43.323 0 78.769 3.938 114.215 15.754 82.708 23.631 141.785 78.769 169.354 165.415 35.446 110.277 19.692 173.292-19.692 216.615-43.323 43.323-114.215 63.015-208.738 63.015h-248.123c-19.692 0-35.446-15.754-39.385-31.508l-110.277-712.862c-3.938-15.754 7.877-27.569 23.631-27.569h149.662c0 0 39.385 248.123 39.385 256 0 27.569 15.754 55.138 51.2 55.138z" />
<glyph unicode="&#xe602;" glyph-name="help" d="M512 878.946c237.568 0 430.907-193.339 430.907-430.946s-193.26-430.946-430.907-430.946-430.946 193.339-430.946 430.946c0 237.607 193.339 430.946 430.946 430.946zM512 960c-282.742 0-512-229.258-512-512 0-282.782 229.258-512 512-512 282.782 0 512 229.218 512 512 0 282.742-229.218 512-512 512v0zM557.804 126.228c-13.273-13.036-31.626-19.574-55.257-19.574-24.103 0-42.811 6.38-56.005 19.18-13.273 12.761-19.81 30.799-19.81 54.114 0 24.103 6.459 42.378 19.417 54.745 12.918 12.367 31.783 18.629 56.438 18.629 23.906 0 42.338-6.341 55.414-18.944 13.154-12.682 19.692-30.799 19.692-54.311-0.039-22.764-6.735-40.684-19.889-53.839zM703.842 511.882c-14.336-23.001-41.787-48.916-81.92-77.588-27.609-20.48-45.135-35.958-52.382-46.631-7.365-10.673-11.067-24.576-11.067-41.826v-25.836h-114.255v31.941c0 27.569 5.868 51.594 17.723 71.995 11.737 20.48 33.319 42.063 64.67 65.063 30.169 21.583 50.097 39.070 59.746 52.618 9.57 13.47 14.454 28.593 14.454 45.253 0 18.668-6.971 32.886-20.677 42.693-13.824 9.807-33.044 14.69-57.777 14.69-43.087 0-92.239-14.060-147.456-42.26l-47.104 94.444c64.118 35.919 132.096 53.878 203.934 53.878 59.195 0 106.26-14.218 141.233-42.654 34.934-28.436 52.421-66.442 52.421-113.822-0.039-31.665-7.247-58.959-21.543-81.959z" />
<glyph unicode="&#xe603;" glyph-name="envelope" d="M820.608 559.539c-16.102 13.158-47.642 36.403-110.49 82.662-38.912 28.621-94.336 69.453-170.138 125.645-8.141 6.042-17.843 9.242-27.981 9.242-10.163 0-19.84-3.2-27.981-9.242-75.802-56.192-131.226-97.024-170.112-125.645-62.874-46.285-94.413-69.53-110.515-82.662-17.050-13.926-24.192-22.323-24.192-38.298v-285.773c0-52.198 42.47-94.669 94.643-94.669h476.314c52.198 0 94.643 42.47 94.643 94.669v285.773c0 15.949-7.142 24.371-24.192 38.298zM307.2 576c12.211 0 107.878 0 204.8 0 96.896 0 192.589 0 204.8 0 0-25.6 0-102.4 0-102.4l-155.162-106.982c-10.445 5.683-18.022 12.39-25.728 16.563-4.685 2.534-12.672 7.859-23.936 7.859s-19.251-5.325-23.936-7.859c-7.706-4.173-15.283-10.906-25.728-16.563l-155.11 106.982c0 0 0 76.8 0 102.4zM230.4 234.726v254.874l208.87-137.165c-69.094-41.062-158.182-92.339-207.053-121.498-0.128 1.254-1.818 2.534-1.818 3.789zM744.499 192h-465.024c-14.592 0-27.725 7.731-36.838 17.792 63.36 37.786 202.624 120.218 261.683 155.136 1.843 1.126 5.146 4.096 7.68 4.096s5.837-2.97 7.68-4.096c59.059-34.893 198.323-117.35 261.683-155.136-9.114-10.061-22.272-17.792-36.864-17.792zM793.6 234.726c0-1.254-1.69-2.534-1.792-3.789-48.896 29.158-137.984 80.435-207.078 121.498l208.87 137.165v-254.874z" />
<glyph unicode="&#xe604;" glyph-name="chat" d="M102.046-64c-25.876 0-50.334 3.072-72.783 9.137-17.329 4.608-29.342 20.244-29.342 38.164 0 44.938 34.895 72.862 68.608 99.84 36.825 29.46 71.838 57.541 78.257 107.244-90.112 84.322-139.422 194.087-139.422 311.099 0 248.99 227.092 451.584 506.289 451.584s506.368-202.594 506.368-451.584-227.17-451.584-506.329-451.584c-28.908 0-58.132 2.245-87.276 6.853-80.463-61.834-212.401-120.753-324.372-120.753zM513.694 874.063c-235.599 0-427.323-167.109-427.323-372.539 0-99.958 45.135-193.89 126.818-264.507 8.665-7.522 13.666-18.471 13.666-29.932 0-98.462-65.575-150.922-108.938-185.62-2.363-1.851-5.002-4.017-7.798-6.223 97.556 2.914 216.025 59.983 279.985 113.703 9.058 7.601 21.11 10.831 32.729 8.625 30.287-5.711 60.81-8.625 90.782-8.625 235.638 0 427.284 167.070 427.284 372.578 0.079 205.43-191.646 372.539-427.205 372.539z" />
<glyph unicode="&#xe605;" glyph-name="arr-left" d="M763.51 783.714l-338.432-335.439 338.905-336.030c31.586-31.311 31.586-82.078 0-113.388-31.665-31.311-82.865-31.311-114.452 0l-396.052 392.625c-15.833 15.675-23.749 36.273-23.71 56.832 0 20.519 7.877 41.078 23.749 56.714l395.5 392.113c31.626 31.311 82.865 31.311 114.53 0 31.586-31.311 31.586-82.117-0.039-113.428z" />
<glyph unicode="&#xe606;" glyph-name="arr-right" d="M253.952 783.714l338.432-335.439-338.944-336.030c-31.586-31.311-31.586-82.078 0-113.388 31.665-31.311 82.865-31.311 114.452 0l396.091 392.625c15.833 15.675 23.788 36.273 23.71 56.832 0 20.519-7.838 41.078-23.71 56.714l-395.5 392.113c-31.626 31.311-82.865 31.311-114.53 0-31.586-31.311-31.586-82.117 0-113.428z" />
<glyph unicode="&#xe607;" glyph-name="user" horiz-adv-x="939" d="M938.716 108.656c0 150.72-35.367 382.023-230.706 382.023-20.668 0-107.966-92.67-238.69-92.67-130.649 0-217.947 92.67-238.615 92.67-195.339 0-230.706-231.303-230.706-382.023 0-107.966 72.002-172.656 178.029-172.656h582.734c105.877 0 177.954 64.69 177.954 172.656zM725.396 704c0 141.319-114.681 256-256.075 256-141.319 0-256-114.681-256-256s114.681-256 256-256c141.393 0 256.075 114.681 256.075 256z" />
<glyph unicode="&#xe608;" glyph-name="open" horiz-adv-x="2614" d="M2517.867 601.549l-1109.035-640.32c-28.942-16.776-60.19-24.076-91.31-24.716-3.458-0.384-6.915-0.256-10.501-0.384-3.458 0.128-7.044 0-10.501 0.384-31.12 0.512-62.495 7.94-91.31 24.716l-1109.035 640.32c-91.95 53.019-123.454 170.453-70.435 262.403 53.147 91.822 170.581 123.326 262.403 70.179l1018.749-588.198 1018.749 588.198c91.95 53.147 209.385 21.515 262.403-70.307s21.643-209.257-70.179-262.275z" />
<glyph unicode="&#xe609;" glyph-name="arr-up" horiz-adv-x="1737" d="M250.694-17.303l613.723 619.173 614.69-620.119c57.326-57.847 150.258-57.847 207.602 0 57.344 57.826 57.344 151.609 0 209.456l-718.345 724.722c-28.711 28.981-66.366 43.433-103.984 43.376-37.598 0.018-75.195-14.432-103.888-43.394l-717.399-723.755c-57.326-57.826-57.326-151.591 0-209.438 57.342-57.865 150.274-57.865 207.6-0.021z" />
<glyph unicode="&#xe60a;" glyph-name="tumbler" d="M512 960c-32.61 0-59.077-26.466-59.077-59.077v-443.077c0-32.61 26.466-59.077 59.077-59.077s59.077 26.466 59.077 59.077v443.077c0 32.61-26.466 59.077-59.077 59.077zM512-23.749c-260.608 0-472.615 212.007-472.615 472.615 0 145.684 65.654 281.009 180.066 371.318 22.607 17.762 55.335 13.942 73.137-8.665 17.802-22.567 13.942-55.257-8.625-73.098-89.246-70.42-140.485-175.97-140.485-289.556 0-203.225 165.297-368.522 368.522-368.522s368.522 165.297 368.522 368.522c0 113.625-51.239 219.215-140.564 289.634-22.567 17.802-26.427 50.53-8.625 73.098 17.723 22.607 50.491 26.427 73.098 8.665 114.491-90.309 180.185-225.634 180.185-371.358 0-260.647-212.007-472.655-472.615-472.655z" />
<glyph unicode="&#xe60b;" glyph-name="taxes" d="M77.509 447.764c22.646 0 41.708 14.927 79.636 44.662 72.468 56.793 193.812 151.906 352.965 151.906 157.381 0 284.83-99.131 353.359-152.418 37.967-29.46 56.95-44.229 79.242-44.229 21.071 0 38.124 17.093 38.124 38.124 0 18.747-13.47 34.304-31.35 37.534-7.247 4.017-24.812 17.684-39.070 28.79-59.943 46.553-160.768 124.652-291.013 155.333 13.942 19.495 23.473 42.142 29.578 64.473 29.145 8.98 50.412 35.761 50.412 67.781 0 39.385-31.98 71.286-71.286 71.286-39.424 0-71.365-31.902-71.365-71.286 0-24.576 12.446-46.119 31.271-58.998-7.641-24.576-21.662-49.822-47.104-61.322-10.161 0.709-20.401 1.142-30.838 1.142s-20.677-0.433-30.878-1.103c-25.403 11.5-39.385 36.785-47.065 61.322 18.826 12.8 31.232 34.462 31.232 58.959 0 39.385-31.941 71.286-71.286 71.286s-71.286-31.902-71.286-71.286c0-32.020 21.307-58.841 50.412-67.781 6.144-22.252 15.557-44.82 29.499-64.315-131.19-30.523-231.227-108.702-290.619-155.254-14.297-11.225-31.862-24.97-39.227-28.987-17.841-3.151-31.468-18.747-31.468-37.573 0-20.992 17.093-38.046 38.124-38.046zM650.476 218.782c-7.719 0-13.509-2.757-17.369-8.546-6.065-8.546-9.137-22.41-9.137-41.551 0-19.023 3.072-32.847 9.137-41.472 3.978-5.632 9.649-8.31 17.369-8.31 7.641 0 13.548 2.678 17.487 8.31 6.144 8.625 9.177 22.41 9.177 41.472 0 19.102-3.033 33.083-9.177 41.826-3.978 5.553-9.846 8.271-17.487 8.271zM380.652 401.487c-7.719 0-13.47-2.678-17.526-8.31-6.144-8.546-9.255-22.41-9.255-41.472 0-19.102 3.111-32.926 9.255-41.551 4.017-5.671 9.807-8.468 17.526-8.468s13.47 2.718 17.29 8.468c6.183 8.625 9.216 22.41 9.216 41.551 0 18.865-3.033 32.768-9.216 41.472-3.82 5.632-9.531 8.31-17.29 8.31zM510.11 596.48c-171.087 0-464.542-151.67-464.542-381.873 0-249.974 207.99-232.566 464.542-232.566s464.502-17.369 464.502 232.566c0 229.022-293.415 381.873-464.502 381.873zM330.24 274.235c-13.863 7.759-24.261 18.865-31.035 33.241-6.735 14.454-10.161 29.775-10.161 45.844 0 15.99 3.387 31.193 10.161 45.647 6.774 14.336 17.172 25.482 31.035 33.201 13.903 7.759 30.366 11.618 49.349 11.618 27.963 0 50.058-8.192 66.127-24.615 16.108-16.463 24.143-38.4 24.143-65.772 0-27.648-8.034-49.664-24.143-66.127-16.108-16.384-38.164-24.615-66.127-24.615-18.983 0-35.446 3.899-49.349 11.579zM455.719 79.596h-74.319l194.796 361.354h74.91l-195.387-361.354zM717.824 104.448c-16.148-16.226-38.164-24.379-66.324-24.379-18.865 0-35.249 3.899-49.31 11.579-13.942 7.68-24.34 18.59-30.956 32.61-6.735 14.060-10.043 29.026-10.043 44.898s3.308 30.838 10.043 44.898c6.695 14.060 17.054 25.009 30.956 32.61 14.060 7.759 30.444 11.579 49.31 11.579 28.16 0 50.137-8.074 66.324-24.3s24.222-37.809 24.222-64.788c0-26.86-8.074-48.482-24.222-64.709z" />
<glyph unicode="&#xe60c;" glyph-name="ecwid" d="M216.064 171.277c0-14.987-12.282-27.136-27.432-27.136s-27.432 12.149-27.432 27.136c0 14.987 12.282 27.136 27.432 27.136 15.151 0 27.432-12.149 27.432-27.136zM862.828 171.277c0-14.987-12.282-27.136-27.432-27.136s-27.432 12.149-27.432 27.136c0 14.987 12.282 27.136 27.432 27.136s27.432-12.149 27.432-27.136zM867.84 958.976h-711.653c-86.232 0-156.187-69.039-156.187-154.139v-713.782c0-84.992 69.955-154.058 156.187-154.058h711.653c86.366 0 156.16 69.066 156.16 154.22v713.62c0 85.1-69.794 154.139-156.16 154.139zM643.315 691.308c23.202 0 41.903-18.54 41.903-41.472 0-22.851-18.675-41.418-41.903-41.418-23.094 0-42.065 18.567-42.065 41.418 0 22.959 18.971 41.472 42.065 41.472zM643.315 547.84c23.202 0 41.903-18.567 41.903-41.418 0-23.013-18.675-41.391-41.903-41.391-23.094 0-42.065 18.405-42.065 41.391 0 22.851 18.971 41.418 42.065 41.418zM512.054 691.308c23.148 0 41.957-18.54 41.957-41.472 0-22.851-18.782-41.418-41.957-41.418-23.256 0-42.065 18.567-42.065 41.418 0 22.959 18.809 41.472 42.065 41.472zM511.434 549.43c23.148 0 41.957-18.54 41.957-41.391 0-23.013-18.782-41.391-41.957-41.391-23.256 0-42.065 18.378-42.065 41.391 0.027 22.824 18.809 41.391 42.065 41.391zM379.365 692.574c23.121 0 41.957-18.54 41.957-41.472 0-22.851-18.89-41.418-41.957-41.418-23.202 0-42.011 18.567-42.011 41.418 0.027 22.959 18.809 41.472 42.011 41.472zM379.365 549.107c23.121 0 41.957-18.567 41.957-41.418 0-23.013-18.89-41.391-41.957-41.391-23.202 0-42.011 18.405-42.011 41.391 0.027 22.824 18.809 41.418 42.011 41.418zM185.694 87.902c-46.349 0-83.941 37.133-83.941 82.917 0 45.811 37.592 82.89 83.941 82.89 46.43 0 83.995-37.080 83.995-82.89 0-45.784-37.565-82.917-83.995-82.917zM670.424 274.944c-43.897-0.162-106.065 0.566-132.365 0.997-22.69 0.377-30.989 21.019-30.989 21.019s-8.947-19.914-49.152-21.019c-40.259-1.482-91.459-0.162-107.17 0.485-72.165 3.368-106.361 41.31-125.844 79.198-19.537 37.726-95.555 320.108-94.909 333.555 0.755 14.821 20.345 12.019 33.684 11.507 42.658-1.428 82.432-31.043 88.064-63.757 14.902-85.908 30.882-154.705 48.532-195.773 23.094-54.029 47.212-56.428 69.255-58.826 22.097-2.695 64.377-5.982 78.201 2.56 13.905 8.623 14.956 12.692 14.848 19.779 0 7.168 0 5.524 0 5.524h97.469c0 0.997 0.108 0 0.108 0h-0.108c0-0.674-0.162-2.317-0.162-5.524 0-6.602-0.674-12.908 11.156-20.318 3.099-1.832 6.845-3.099 11.587-3.665 4.635-0.404 20.48-1.293 38.265-1.428 16.115 0 33.846 0.566 47.050 3.288 27.567 5.686 51.254 45.972 55.673 57.479 36.514 90.408 62.41 277.342 79.306 313.209 16.788 35.84 30.046 44.49 30.046 44.49s17.624 11.749 37.107 14.201c17.381 2.344 62.114 10.536 52.359-20.884-9.728-31.34-18.27-51.443-25.357-86.636-6.575-32.364-35.786-182.515-54.622-249.155-56.239-193.428-144.088-180.251-172.032-180.305zM831.407 88.414c-46.269 0-83.591 36.729-83.591 82.405 0 45.541 37.322 82.351 83.591 82.351 46.053 0 83.429-36.891 83.429-82.351-0.027-45.649-37.241-82.405-83.429-82.405z" />
<glyph unicode="&#xe60d;" glyph-name="disable-all" d="M515.23 920.615c-261.002 0-472.615-211.614-472.615-472.615s211.614-472.615 472.615-472.615 472.615 211.614 472.615 472.615c0 261.002-211.614 472.615-472.615 472.615zM764.692 205.273c-17.329-17.054-45.371-17.054-62.661 0l-184.99 182.193-188.298-185.462c-17.369-17.132-45.371-17.132-62.74 0-17.29 17.054-17.29 44.623 0 61.598l185.383 182.587-185.62 182.823c-17.29 17.054-17.29 44.662 0 61.676 17.369 17.054 45.371 17.054 62.7 0l184.95-182.114 188.298 185.462c17.29 17.014 45.371 17.014 62.74 0 17.29-17.054 17.29-44.702 0-61.716l-185.383-182.548 185.62-182.823c17.329-16.975 17.329-44.583 0-61.676z" />
<glyph unicode="&#xe60e;" glyph-name="enable-all" d="M512 920.615c-261.002 0-472.615-211.614-472.615-472.615s211.614-472.615 472.615-472.615c261.002 0 472.615 211.614 472.615 472.615s-211.614 472.615-472.615 472.615zM738.54 578.284l-247.335-364.741c-7.444-10.831-19.023-18.078-30.523-18.078s-24.3 6.223-32.414 14.375l-145.132 145.172c-9.886 9.925-9.886 25.954 0 35.919l35.801 35.879c9.886 9.767 26.033 9.767 35.84 0l94.405-94.405 205.391 302.907c7.798 11.5 23.71 14.454 35.21 6.656l41.945-28.514c11.579-7.838 14.572-23.631 6.814-35.17z" />
<glyph unicode="&#xe60f;" glyph-name="gallery" d="M669.538 960h-630.154c-21.701 0-39.385-17.684-39.385-39.385v-630.154c0-21.701 17.684-39.385 39.385-39.385h630.154c21.701 0 39.385 17.684 39.385 39.385v630.154c0 21.701-17.684 39.385-39.385 39.385zM630.154 408.615h-551.385v472.615h551.385v-472.615zM871.7 824.556l-123.392 21.228v-79.911l71.247-12.288-71.247-413.893v-49.231c0-43.481-35.328-78.769-78.769-78.769h-416.729l498.649-85.78c21.425-3.702 41.826 10.752 45.529 32.138l106.85 621.017c3.702 21.386-10.713 41.826-32.138 45.489zM992.807 632.359l-71.365 16.738-13.351-77.785 28.475-6.656-107.993-460.13-15.754 3.742c-14.257-13.824-33.477-22.331-54.626-22.331-4.372 0-8.901 0.394-13.391 1.142l-545.634 93.893-11.146-47.419c-4.844-21.15 8.271-42.457 29.42-47.38l613.455-143.911c21.15-5.002 42.338 8.231 47.34 29.302l143.911 613.494c5.002 21.11-8.153 42.338-29.342 47.301z" />
<glyph unicode="&#xe610;" glyph-name="import" d="M708.923 395.697c0-65.221-52.933-118.154-118.154-118.154h-157.538c-65.221 0-118.154 52.933-118.154 118.154v393.846c0 65.3 52.933 118.154 118.154 118.154h157.538c65.221 0 118.154-52.854 118.154-118.154v-393.846zM599.001 158.602c-86.843-86.882-85.78-86.646-172.465 0l-258.678 258.678c-47.537 47.655-36.628 57.147 18.905 57.147h652.249c50.137 0 66.284-9.492 18.747-57.147l-258.757-258.678zM945.231 211.692v-157.538c0-21.701-17.684-39.385-39.385-39.385h-787.692c-21.74 0-39.385 17.684-39.385 39.385v157.538h-78.769v-157.538c0-65.221 52.933-118.154 118.154-118.154h787.692c65.221 0 118.154 52.933 118.154 118.154v157.538h-78.769z" />
<glyph unicode="&#xe611;" glyph-name="menu" d="M118.154 723.692c-21.701 0-39.385 17.684-39.385 39.385v78.769c0 21.701 17.684 39.385 39.385 39.385h78.769c21.701 0 39.385-17.684 39.385-39.385v-78.769c0-21.701-17.684-39.385-39.385-39.385h-78.769zM118.154 487.385c-21.701 0-39.385 17.684-39.385 39.385v78.769c0 21.701 17.684 39.385 39.385 39.385h78.769c21.701 0 39.385-17.684 39.385-39.385v-78.769c0-21.701-17.684-39.385-39.385-39.385h-78.769zM118.154 251.077c-21.701 0-39.385 17.684-39.385 39.385v78.769c0 21.701 17.684 39.385 39.385 39.385h78.769c21.701 0 39.385-17.684 39.385-39.385v-78.769c0-21.701-17.684-39.385-39.385-39.385h-78.769zM118.154 14.769c-21.701 0-39.385 17.684-39.385 39.385v78.769c0 21.701 17.684 39.385 39.385 39.385h78.769c21.701 0 39.385-17.684 39.385-39.385v-78.769c0-21.701-17.684-39.385-39.385-39.385h-78.769zM905.846 763.077h-551.385c-21.78 0-39.385 17.605-39.385 39.385s17.605 39.385 39.385 39.385h551.385c21.78 0 39.385-17.605 39.385-39.385s-17.605-39.385-39.385-39.385zM905.846 526.769h-551.385c-21.78 0-39.385 17.605-39.385 39.385s17.605 39.385 39.385 39.385h551.385c21.78 0 39.385-17.605 39.385-39.385s-17.605-39.385-39.385-39.385zM905.846 290.462h-551.385c-21.78 0-39.385 17.605-39.385 39.385s17.605 39.385 39.385 39.385h551.385c21.78 0 39.385-17.605 39.385-39.385s-17.605-39.385-39.385-39.385zM905.846 54.154h-551.385c-21.78 0-39.385 17.605-39.385 39.385s17.605 39.385 39.385 39.385h551.385c21.78 0 39.385-17.605 39.385-39.385s-17.605-39.385-39.385-39.385z" />
<glyph unicode="&#xe612;" glyph-name="arrange" d="M866.462 761.935h-708.923c-78.769 1.142-157.538-38.242-157.538-156.396v-315.077c0-118.154 78.769-157.538 157.538-157.538h708.923c78.769 0 157.538 39.385 157.538 157.538v315.077c0 118.154-78.769 157.538-157.538 156.396zM404.322 284.751c0-15.675-12.682-28.357-28.396-28.357h-17.684c-13.076 0-24.143 8.822-27.451 21.071-33.083-19.692-64.512-29.263-95.035-29.263-74.279 0-122.25 45.647-122.25 116.263 0 101.967 103.7 133.671 212.992 148.283-2.009 21.228-7.68 37.022-16.699 46.316-7.877 8.034-19.141 11.894-34.619 11.894-43.481 0-78.651-25.442-88.418-33.241-6.183-4.923-14.297-7.010-22.095-5.947-7.838 1.26-14.848 5.711-19.259 12.327l-10.87 16.423c-8.428 12.603-5.435 29.578 6.853 38.558 24.3 17.841 74.201 47.734 135.168 47.734 81.211 0 127.764-55.060 127.764-151.001v-211.062zM583.444 421.022c0-13.824-11.185-24.97-24.97-24.97h-93.42c-13.785 0-24.93 11.146-24.93 24.97v17.959c0 13.785 11.146 24.97 24.93 24.97h93.42c13.785 0 24.97-11.185 24.97-24.97v-17.959zM905.846 281.127c0-16.148-13.509-29.223-30.129-29.223h-248.596c-16.62 0-30.129 13.076-30.129 29.223v11.303c0 5.79 1.812 11.54 5.159 16.345l180.618 259.19h-132.49c-16.66 0-30.169 12.997-30.169 29.263v19.692c0 16.148 13.509 29.302 30.169 29.302h218.23c16.66 0 30.129-13.154 30.129-29.302v-11.264c0-5.868-1.812-11.618-5.159-16.384l-180.697-259.151h162.974c16.62 0 30.129-13.115 30.129-29.263v-19.732zM191.921 365.135c0-19.18 5.159-41.039 45.135-41.039 27.372 0 54.036 11.973 90.073 40.881v72.665c-135.207-20.047-135.207-55.138-135.207-72.507z" />
<glyph unicode="&#xe613;" glyph-name="categories" d="M1010.53 566.666c-16.384 24.694-45.371 38.873-79.596 38.873h-64.473c0 65.26-52.933 118.154-118.154 118.154h-315.077c0 65.26-52.894 118.154-118.154 118.154h-196.923c-65.26 0-118.154-52.894-118.154-118.154v-551.385c0-47.774 28.593-88.379 69.435-106.929 5.041-2.599 10.634-4.411 16.305-6.105 0-0.039 0.039-0.039 0.039-0.039v0c9.925-2.993 20.401-5.081 31.744-5.081h630.154c59.825 0 122.407 41.393 146.235 97.831l121.502 326.577c13.233 31.35 11.461 63.449-4.884 88.103zM942.238 507.668l-121.502-326.617c-10.673-25.206-45.45-48.128-73.019-48.128h-630.154c-9.452 0-13.351 2.678-13.982 3.623-0.591 0.906-1.497 5.435 2.678 15.478l121.502 326.577c10.634 25.206 45.45 48.167 73.019 48.167h630.154c8.428 0 13.036-2.245 13.982-3.663 0.906-1.339 1.142-6.302-2.678-15.439z" />
<glyph unicode="&#xe614;" glyph-name="edit" d="M275.771 146.393l432.994 432.64-71.916 71.956-433.034-432.679 62.897-14.060zM756.263 532.401l-431.025-430.631-174.513-51.239-36.194 36.194 53.445 182.154 426.142 425.708-51.673 51.594-432.758-429.017c-5.79-4.726-10.673-10.673-12.958-18.353l-90.742-309.169c-3.978-13.47-0.236-28.042 9.689-37.967 7.326-7.326 17.132-11.225 27.136-11.225 3.623 0 7.247 0.512 10.831 1.536l309.169 90.782c7.326 2.166 12.958 6.695 17.605 12.091l433.585 429.765-57.738 57.777zM581.75 789.307l271.557-271.557 62.11 58.25-271.478 271.557zM986.86 793.206l-130.166 130.087c-35.919 35.958-93.854 36.234-129.378 0.709l-39.936-40.409 260.214-260.254 39.975 40.409c35.525 35.564 35.21 93.499-0.709 129.457z" />
<glyph unicode="&#xe615;" glyph-name="star" d="M788.874-0.158c-6.262 0-12.564 1.536-18.314 4.529l-258.56 135.956-258.56-135.916c-13.273-7.010-29.381-5.75-41.472 2.993-12.13 8.862-18.196 23.788-15.675 38.558l49.388 287.941-209.172 203.894c-10.713 10.476-14.612 26.112-9.964 40.369 4.647 14.218 16.935 24.615 31.783 26.742l289.044 42.023 129.3 261.947c13.233 26.9 57.383 26.9 70.617 0l129.3-261.947 289.044-41.984c14.848-2.166 27.136-12.564 31.823-26.821 4.608-14.257 0.788-29.893-9.964-40.369l-209.211-203.894 48.089-280.379c1.733-4.372 2.639-9.137 2.639-14.218 0-21.78-17.605-39.385-39.385-39.385-0.118-0.039-0.433-0.039-0.748-0.039zM512 224.138c6.302 0 12.564-1.457 18.314-4.529l206.257-108.386-39.385 229.691c-2.206 12.761 2.048 25.758 11.303 34.855l166.833 162.658-230.558 33.516c-12.839 1.851-23.906 9.925-29.657 21.543l-103.109 208.975-103.148-208.975c-5.75-11.618-16.817-19.692-29.617-21.543l-230.558-33.516 166.873-162.658c9.255-9.058 13.509-22.095 11.343-34.855l-39.385-229.691 206.257 108.386c5.671 3.072 11.934 4.529 18.235 4.529z" />
<glyph unicode="&#xe616;" glyph-name="calendar" d="M275.692 723.692c-21.701 0-39.385 17.684-39.385 39.385v118.154c0 21.74 17.684 39.385 39.385 39.385v0c21.701 0 39.385-17.644 39.385-39.385v-118.154c0-21.701-17.684-39.385-39.385-39.385v0zM866.462 841.846h-39.385v-78.769c0-43.441-35.289-78.769-78.769-78.769s-78.769 35.328-78.769 78.769v78.769h-315.077v-78.769c0-43.441-35.289-78.769-78.769-78.769s-78.769 35.328-78.769 78.769v78.769h-39.385c-65.221 0-118.154-52.894-118.154-118.154v-630.154c0-65.221 52.933-118.154 118.154-118.154h708.923c65.221 0 118.154 52.933 118.154 118.154v630.154c0 65.26-52.933 118.154-118.154 118.154zM905.846 93.538c0-21.701-17.684-39.385-39.385-39.385h-708.923c-21.701 0-39.385 17.684-39.385 39.385v472.615h787.692v-472.615zM748.308 723.692c-21.701 0-39.385 17.684-39.385 39.385v118.154c0 21.74 17.684 39.385 39.385 39.385v0c21.701 0 39.385-17.644 39.385-39.385v-118.154c0-21.701-17.684-39.385-39.385-39.385v0zM807.385 172.308h-590.769c-10.87 0-19.692 8.822-19.692 19.692s8.822 19.692 19.692 19.692h590.769c10.87 0 19.692-8.822 19.692-19.692s-8.822-19.692-19.692-19.692zM807.385 290.462h-590.769c-10.87 0-19.692 8.822-19.692 19.692s8.822 19.692 19.692 19.692h590.769c10.87 0 19.692-8.822 19.692-19.692s-8.822-19.692-19.692-19.692zM807.385 408.615h-590.769c-10.87 0-19.692 8.822-19.692 19.692s8.822 19.692 19.692 19.692h590.769c10.87 0 19.692-8.822 19.692-19.692s-8.822-19.692-19.692-19.692z" />
<glyph unicode="&#xe617;" glyph-name="search" horiz-adv-x="1030" d="M118.482 844.54c-153.328-153.324-153.702-404.494-0.376-557.822 129.906-129.91 330.238-149.702 481.602-59.41l270.506-263.034c37.232-36.13 95.972-34.794 131.514 2.994 35.55 37.788 34.618 97.248-2.614 133.382l-266.392 258.176c93.4 151.818 74.436 354.484-56.792 485.712-153.326 153.328-404.124 153.328-557.448 0.002v0 0zM230.942 732.080c92.486 92.486 240.042 92.486 332.528 0 92.49-92.486 92.49-240.042 0-332.528-92.486-92.49-240.042-92.49-332.528 0s-92.486 240.046 0 332.528z" />
<glyph unicode="&#xe618;" glyph-name="print" d="M315.077 290.462h393.846v-78.769h-393.846v78.769zM315.077 172.308h275.692v-78.769h-275.692v78.769zM866.462 644.923h-0.788v196.923c0 65.142-53.012 118.154-118.154 118.154h-472.615c-65.142 0-118.154-53.012-118.154-118.154v-197.002c-64.866-0.433-117.366-53.13-117.366-118.075v-236.308c0-64.945 52.5-117.642 117.366-118.075v-118.233c0-65.142 53.012-118.154 118.154-118.154h472.615c65.142 0 118.154 53.012 118.154 118.154v118.154h0.788c65.221 0 118.154 52.933 118.154 118.154v236.308c0 65.221-52.933 118.154-118.154 118.154zM235.52 841.846c0 21.701 17.684 39.385 39.385 39.385h472.615c21.74 0 39.385-17.684 39.385-39.385v-196.923h-551.385v196.923zM786.905 54.154c0-21.74-17.644-39.385-39.385-39.385h-472.615c-21.701 0-39.385 17.644-39.385 39.385v315.077h551.385v-315.077zM846.769 448c-32.61 0-59.077 26.466-59.077 59.077s26.466 59.077 59.077 59.077 59.077-26.466 59.077-59.077-26.466-59.077-59.077-59.077z" />
<glyph unicode="&#xe619;" glyph-name="settings" d="M132.175 95.626c-18.747 18.708-18.747 49.388 0 68.135l68.135 68.096c18.786 18.786 49.388 18.786 68.135 0l68.175-68.096c18.747-18.786 18.747-49.467-0.039-68.214l-68.135-68.096c-18.747-18.786-49.349-18.786-68.096 0l-68.175 68.175zM805.455 410.663c-18.786 18.747-18.786 49.388 0 68.135l68.135 68.096c18.786 18.747 49.388 18.747 68.135 0l68.135-68.096c18.786-18.786 18.786-49.428 0-68.175l-68.135-68.096c-18.786-18.786-49.388-18.786-68.135 0l-68.135 68.135zM289.713 725.74c-18.747 18.747-18.747 49.388 0 68.135l68.135 68.096c18.786 18.747 49.388 18.747 68.135 0l68.175-68.096c18.786-18.786 18.786-49.428-0.039-68.175l-68.135-68.096c-18.747-18.786-49.349-18.786-68.096 0l-68.175 68.135zM39.385 799.193h393.846v-78.769h-393.846v78.769zM39.385 484.116h980.874v-78.769h-980.874v78.769zM39.385 168.999h118.154v-78.769h-118.154v78.769zM551.385 799.193h433.231v-78.769h-433.231v78.769zM393.846 168.999h590.769v-78.769h-590.769v78.769z" />
<glyph unicode="&#xe61a;" glyph-name="main-menu" d="M1022.070 721.762c0-42.457-34.422-76.839-76.839-76.839h-868.391c-42.417 0-76.839 34.383-76.839 76.839v0c0 42.417 34.422 76.839 76.839 76.839h868.391c42.417-0.039 76.839-34.422 76.839-76.839v0zM1022.070 446.070c0-42.457-34.422-76.839-76.839-76.839h-868.391c-42.417 0-76.839 34.383-76.839 76.839v0c0 42.417 34.422 76.8 76.839 76.8h868.391c42.417 0 76.839-34.383 76.839-76.8v0zM1022.070 172.859c0-42.457-34.422-76.839-76.839-76.839h-868.391c-42.417-0.039-76.839 34.383-76.839 76.839v0c0 42.378 34.422 76.8 76.839 76.8h868.391c42.417 0 76.839-34.422 76.839-76.8v0z" />
<glyph unicode="&#xe61b;" glyph-name="sales" d="M549.337 380.77l-0.039-118.548c19.062 2.993 18.196 6.38 28.002 17.447 9.846 11.028 14.73 24.891 14.73 41.433 0 19.141-5.711 33.477-17.014 43.008-11.303 9.492-9.57 10.673-25.679 16.66zM442.053 551.778c0-14.060 5.396-25.482 16.187-34.304 10.831-8.783 9.452-10.398 23.001-15.951l-1.497 112.522c-7.404-1.89-12.564-6.617-22.607-17.447-10.082-10.791-15.084-25.718-15.084-44.82zM1010.058 406.37l-59.825 94.366 35.486 105.905c4.805 14.454-1.182 30.326-14.375 37.888l-96.807 55.808-17.802 110.277c-2.442 15.045-15.163 26.27-30.366 26.9l-111.616 4.372-67.072 89.403c-9.137 12.209-25.6 16.266-39.306 9.689l-100.903-48.010-100.903 48.010c-13.666 6.577-30.129 2.481-39.266-9.689l-67.033-89.403-111.655-4.332c-15.202-0.63-27.884-11.855-30.326-26.9l-17.841-110.277-96.807-55.808c-13.194-7.562-19.18-23.434-14.336-37.888l35.486-105.905-59.825-94.366c-8.153-12.839-6.105-29.696 4.923-40.212l80.62-77.312-9.058-111.34c-1.221-15.202 8.389-29.105 23.001-33.359l107.323-30.956 43.717-102.794c5.947-13.982 20.992-22.095 35.879-18.865l109.489 22.41 86.449-70.735c5.829-4.805 12.997-7.247 20.204-7.247s14.375 2.442 20.283 7.247l86.449 70.735 109.45-22.41c14.848-3.19 29.932 4.805 35.879 18.865l43.678 102.794 107.323 30.956c14.612 4.214 24.222 18.156 23.001 33.359l-9.058 111.34 80.62 77.312c10.988 10.476 13.076 27.333 4.923 40.172zM678.321 264.271c-7.798-18.393-18.59-33.91-32.374-46.789-13.863-12.761-30.287-22.843-49.388-30.129-19.062-7.326-30.759-11.697-53.366-13.233v-41.196h-61.952v41.236c-28.633 2.087-42.929 8.468-70.105 19.22-27.136 10.791-53.012 27.53-77.627 50.137l51.239 66.324c17.093-14.572 34.54-26.27 52.382-35.052 17.841-8.822 23.473-10.043 44.111-12.564v140.918c-18.59 6.026-23.001 8.704-40.29 16.738-17.329 8.034-32.689 17.959-45.962 29.775-13.312 11.776-23.985 25.639-32.020 41.472s-12.052 34.777-12.052 56.871c0 21.11 3.387 40.566 10.161 58.407s16.463 33.398 29.026 46.75c12.524 13.273 27.648 24.103 45.214 32.414 17.605 8.271 23.867 13.43 45.962 15.439v62.070h64.394v-62.070c24.615-1.497 36.982-6.302 60.337-14.297 23.394-8.034 45.607-19.614 66.718-34.658-1.024-2.009-3.702-6.656-7.956-13.942-4.214-7.286-8.783-15.045-13.588-23.355-4.726-8.271-9.255-15.951-13.548-23.001-4.254-7.010-7.129-11.54-8.704-13.548-16.542 11.067-32.492 19.85-47.852 26.388-15.321 6.538-15.675 7.483-31.783 9.531v-134.932c24.143-7.522 30.366-12.406 49.546-21.189 19.023-8.783 35.367-19.22 48.955-31.271 13.548-12.091 23.946-26.27 31.271-42.575 7.286-16.384 10.91-35.84 10.91-58.447s-3.899-43.087-11.658-61.44z" />
<glyph unicode="&#xe61c;" glyph-name="chart" d="M49.822-64c-27.49 0-49.822 22.37-49.822 49.861v199.365c0 27.451 22.331 49.782 49.822 49.782h98.855c27.451 0 49.861-22.292 49.861-49.782v-199.365c0.039-27.49-22.37-49.861-49.861-49.861h-98.855zM311.808-64c-27.333 0-49.585 22.292-49.585 49.625v372.224c0 27.215 22.252 49.546 49.585 49.546h111.262c27.294 0 49.546-22.213 49.546-49.546v-372.224c0-27.294-22.252-49.625-49.546-49.625h-111.262zM587.461-64c-26.703 0-48.443 21.858-48.443 48.522v495.38c0 26.703 21.78 48.482 48.443 48.482h112.404c26.742 0 48.443-21.78 48.443-48.482v-495.38c0-26.663-21.78-48.522-48.443-48.522h-112.404zM863.783-64c-26.86 0-48.561 21.858-48.561 48.601v608.098c0 26.782 21.78 48.601 48.561 48.601h111.616c26.782 0 48.601-21.819 48.601-48.601v-608.059c0-26.782-21.858-48.64-48.601-48.64h-111.616zM90.427 382.74c-9.531 0-18.905 4.293-25.127 12.446-10.516 13.903-7.798 33.634 6.065 44.15l285.46 216.418c2.678 2.009 5.671 3.623 8.862 4.687l272.66 93.184 274.432 136.704c15.596 7.759 34.501 1.418 42.22-14.178 7.759-15.596 1.418-34.462-14.139-42.26l-276.322-137.61c-1.221-0.63-2.521-1.142-3.86-1.615l-269.824-92.199-281.403-213.346c-5.671-4.293-12.367-6.38-19.023-6.38zM1009.94 862.090c0-45.917-37.223-83.141-83.141-83.141s-83.141 37.223-83.141 83.141c0 45.917 37.223 83.141 83.141 83.141s83.141-37.223 83.141-83.141zM733.617 724.48c0-45.917-37.223-83.141-83.141-83.141s-83.141 37.223-83.141 83.141c0 45.917 37.223 83.141 83.141 83.141s83.141-37.223 83.141-83.141zM458.988 630.587c0-45.917-37.223-83.141-83.141-83.141s-83.141 37.223-83.141 83.141c0 45.917 37.223 83.141 83.141 83.141s83.141-37.223 83.141-83.141zM182.823 428.977c0-45.917-37.223-83.141-83.141-83.141-45.917 0-83.141 37.223-83.141 83.141s37.223 83.141 83.141 83.141c45.917 0 83.141-37.223 83.141-83.141z" />
<glyph unicode="&#xe61d;" glyph-name="home" d="M975.675 368.325c-10.082 0-20.165 3.86-27.845 11.54l-435.83 435.83-434.609-434.609c-15.399-15.399-40.29-15.399-55.69 0s-15.399 40.29 0 55.69l462.454 462.454c14.769 14.769 40.921 14.769 55.69 0l463.675-463.675c15.399-15.399 15.399-40.29 0-55.69-7.68-7.719-17.762-11.54-27.845-11.54zM748.308 635.077v245.563c0 21.701 17.684 39.385 39.385 39.385h39.385c21.701 0 39.385-17.684 39.385-39.385v-363.678l-118.154 118.114zM512 743.385l-433.231-433.231v-256c0-65.26 52.894-118.154 118.154-118.154h630.154c65.26 0 118.154 52.894 118.154 118.154v256l-433.231 433.231zM630.154 54.154c0-21.74-17.644-39.385-39.385-39.385h-157.538c-21.701 0-39.385 17.644-39.385 39.385v275.692c0 21.701 17.684 39.385 39.385 39.385h157.538c21.74 0 39.385-17.684 39.385-39.385v-275.692z" />
<glyph unicode="&#xe61e;" glyph-name="radiobutton-checked" d="M512 960c-282.782 0-512-229.218-512-512s229.218-512 512-512 512 229.218 512 512-229.218 512-512 512zM820.618 605.026l-288.295-425.118c-8.704-12.603-22.213-21.071-35.604-21.071-13.47 0-28.357 7.365-37.77 16.778l-213.977 193.615c-11.54 11.54-11.54 30.326 0 41.826l41.748 41.866c11.54 11.422 30.366 11.422 41.787 0l154.86-134.538 239.34 353.083c9.177 13.391 27.609 16.857 41.078 7.759l48.916-33.201c13.47-9.137 16.975-27.569 7.916-40.999z" />
<glyph unicode="&#xe61f;" glyph-name="radiobutton-unchecked" d="M512 900.923c249.738 0 452.923-203.185 452.923-452.923s-203.185-452.923-452.923-452.923c-249.738 0-452.923 203.185-452.923 452.923s203.185 452.923 452.923 452.923zM512 960c-282.782 0-512-229.218-512-512s229.218-512 512-512 512 229.218 512 512-229.218 512-512 512v0z" />
<glyph unicode="&#xe620;" glyph-name="update" d="M229.809 448c0 142.375 105.669 259.899 242.806 279.119v-82.196l252.022 157.538-252.022 157.538v-88.143c-216.655-19.889-386.442-202.004-386.442-423.857 0-115.594 46.238-220.278 121.029-296.999l106.142 96.768c-51.594 51.161-83.535 121.935-83.535 200.231zM937.826 448c0 115.554-46.238 220.199-120.95 296.96l-106.102-96.807c51.476-51.121 83.377-121.895 83.377-200.153 0-142.336-105.669-259.781-242.767-278.961v82.038l-252.062-157.538 252.062-157.538v88.143c216.694 19.889 386.442 202.004 386.442 423.857z" />
<glyph unicode="&#xe621;" glyph-name="lock" d="M905.846 426.535v-386.757c0-17.92-6.42-33.004-19.141-45.607-12.721-12.485-28.318-18.786-46.553-18.786h-656.345c-18.235 0-33.713 6.223-46.513 18.786-12.761 12.603-19.141 27.687-19.141 45.607v386.757c0 17.92 6.38 33.083 19.141 45.647 12.761 12.524 28.278 18.826 46.513 18.826h21.858v128.866c0 82.353 30.090 153.049 90.27 212.126s132.175 88.615 216.064 88.615 155.884-29.538 216.064-88.615c60.14-59.077 90.27-129.772 90.27-212.126v-128.866h21.819c18.235 0 33.713-6.302 46.553-18.826 12.721-12.564 19.141-27.727 19.141-45.647zM336.935 490.969h350.090v128.906c0 47.458-17.172 87.946-51.358 121.502-34.107 33.556-75.382 50.334-123.707 50.334-48.364 0-89.521-16.778-123.786-50.334-34.225-33.556-51.279-74.043-51.279-121.502v-128.906z" />
<glyph unicode="&#xe622;" glyph-name="speaker" d="M948.263 844.918c-20.047 0-36.391-16.305-36.391-36.352v-29.026l-799.783-238.198v12.721c0 20.086-16.345 36.352-36.352 36.352s-36.352-16.266-36.352-36.352v-181.799c0-20.007 16.345-36.352 36.352-36.352s36.352 16.345 36.352 36.352v9.177l799.783-269.548v-30.405c0-20.047 16.345-36.352 36.391-36.352 20.007 0 36.352 16.305 36.352 36.352v727.079c0 20.047-16.345 36.352-36.352 36.352zM875.52 590.415l-727.079-109.056v18.156l727.079 199.956v-109.056zM530.708 226.816c-12.367 4.332-25.797-2.087-30.169-14.375l-8.389-23.631c-4.372-13.076-13.548-23.67-25.876-29.814-12.327-6.105-26.309-7.168-39.385-2.757l-90.427 30.247c-13.076 4.332-23.67 13.548-29.814 25.836-6.144 12.327-7.129 26.309-2.875 38.991l8.192 23.237c4.332 12.288-2.127 25.797-14.415 30.169-12.406 4.332-25.797-2.087-30.169-14.375l-8.31-23.631c-8.389-25.088-6.498-51.87 5.278-75.5s32.059-41.196 57.108-49.585l90.427-30.247c10.279-3.426 20.874-5.12 31.39-5.12 15.124 0 30.129 3.505 44.071 10.476 23.631 11.776 41.236 32.059 49.428 56.714l8.231 23.198c4.45 12.288-1.969 25.797-14.297 30.169z" />
<glyph unicode="&#xe623;" glyph-name="warning" d="M1003.205 161.871l-397.982 675.879c-48.64 84.283-128.236 84.283-176.916 0l-397.942-675.879c-48.64-84.401-8.862-159.429 88.418-159.429h796.042c97.241 0.039 137.058 75.067 88.379 159.429zM462.139 642.166c14.297 15.478 32.453 23.198 54.666 23.198 22.174 0 40.33-7.68 54.666-22.882 14.178-15.281 21.307-34.383 21.307-57.344 0-19.771-29.696-165.022-39.582-270.73h-71.522c-8.704 105.708-40.921 250.959-40.921 270.73 0.039 22.607 7.129 41.63 21.386 57.029zM570.407 139.618c-15.045-14.651-32.926-21.977-53.602-21.977-20.756 0-38.636 7.326-53.681 21.977-15.006 14.612-22.449 32.295-22.449 53.13 0 20.677 7.444 38.558 22.449 53.563s32.886 22.449 53.681 22.449c20.677 0 38.558-7.444 53.602-22.449s22.489-32.886 22.489-53.563c0.039-20.834-7.444-38.518-22.489-53.13z" />
<glyph unicode="&#xe624;" glyph-name="apple" d="M769.3 418.265c-1.378 128.512 104.645 190.385 109.45 193.418-59.865 87.198-152.734 99.052-185.856 100.431-79.084 7.916-154.23-46.789-194.324-46.789-40.094-0.079-102.085 45.214-167.66 43.874-86.174-1.378-165.534-50.334-209.881-127.527-89.285-155.569-22.331-385.654 65.063-511.606 42.732-61.519 93.657-130.796 160.453-128.276 64.315 2.639 88.576 41.708 166.282 41.787 77.706 0.197 99.722-41.433 167.66-40.054 69.238 1.378 112.994 63.055 155.215 124.928 48.916 71.641 68.962 140.958 70.105 144.542-1.457 0.67-134.932 51.633-136.507 205.273zM641.654 795.215c35.446 42.969 59.274 102.636 52.775 162.146-51.042-2.087-112.916-34.028-149.583-76.958-32.847-38.046-61.598-98.777-53.839-157.066 56.911-4.411 115.161 28.987 150.646 71.877z" />
<glyph unicode="&#xe625;" glyph-name="discount" d="M695.493 381.834c7.956-11.382 12.012-29.538 12.012-54.351 0-24.773-4.057-42.85-12.012-54.036-5.238-7.168-12.839-10.831-22.804-10.831-10.043 0-17.487 3.702-22.489 10.831-8.074 11.185-12.012 29.263-12.012 54.036 0 24.812 3.938 42.772 12.012 53.996 5.002 7.404 12.446 11.146 22.489 11.146 9.964 0.039 17.566-3.545 22.804-10.791zM355.643 630.39c-10.004 0-17.566-3.663-22.804-10.791-7.956-11.225-11.973-29.302-11.973-54.075 0-24.812 4.017-42.85 11.973-53.996 5.238-7.404 12.8-11.146 22.804-11.146 10.043 0 17.526 3.742 22.528 11.146 7.995 11.146 11.973 29.184 11.973 53.996 0 24.615-3.978 42.693-11.973 54.075-4.962 7.168-12.446 10.791-22.528 10.791zM1018.289 371.83l-81.644-78.297 9.177-112.876c1.221-15.36-8.468-29.42-23.276-33.713l-108.78-31.39-44.229-104.172c-6.026-14.218-21.346-22.37-36.391-19.102l-110.946 22.686-87.513-71.641c-5.947-4.884-13.233-7.326-20.519-7.326s-14.612 2.442-20.519 7.326l-87.591 71.641-110.946-22.686c-15.045-3.269-30.247 4.884-36.352 19.102l-44.268 104.172-108.702 31.39c-14.769 4.293-24.537 18.393-23.276 33.713l9.177 112.876-81.684 78.297c-11.146 10.673-13.233 27.727-4.962 40.724l60.574 95.626-35.998 107.323c-4.805 14.651 1.26 30.759 14.612 38.4l98.068 56.517 18.038 111.734c2.481 15.281 15.36 26.663 30.72 27.254l113.152 4.45 67.86 90.585c9.255 12.288 25.954 16.423 39.857 9.767l102.203-48.64 102.203 48.64c13.824 6.656 30.562 2.599 39.857-9.767l67.899-90.585 113.113-4.45c15.439-0.591 28.278-11.973 30.759-27.254l17.999-111.695 98.107-56.517c13.391-7.641 19.417-23.749 14.612-38.4l-35.998-107.323 60.574-95.626c8.31-12.997 6.223-30.090-4.962-40.763zM354.304 449.654c36.431 0 65.103 10.713 86.055 32.098s31.429 50.058 31.429 85.858c0 35.682-10.476 64.236-31.429 85.622s-49.664 32.138-86.055 32.138c-24.694 0-46.119-5.041-64.236-15.124-18.078-10.082-31.586-24.497-40.369-43.284-8.822-18.747-13.194-38.518-13.194-59.313 0-20.913 4.372-40.842 13.194-59.589 8.783-18.708 22.292-33.083 40.33-43.284 18.156-10.004 39.582-15.124 64.276-15.124zM673.556 681.708h-63.488l-253.479-470.055h62.74l254.228 470.055zM791.828 328.074c0 34.974-10.516 63.173-31.508 84.165-20.913 21.15-49.743 31.705-86.252 31.705-24.537 0-45.883-4.962-64.158-14.966-18.117-10.004-31.626-24.222-40.29-42.535s-13.036-37.809-13.036-58.368c0-20.638 4.332-40.015 13.036-58.368 8.704-18.274 22.174-32.414 40.29-42.417 18.274-10.004 39.621-15.045 64.158-15.045 36.549 0 65.339 10.555 86.252 31.705 21.031 21.071 31.508 49.073 31.508 84.126z" />
<glyph unicode="&#xe626;" glyph-name="bag" horiz-adv-x="1649" d="M1343.961 672.689c-16.817 15.478-42.811 14.178-58.053-2.954-15.242-17.054-13.982-43.481 2.836-58.959 46.474-42.732 73.058-104.015 73.058-168.015 0-63.882-26.782-125.243-73.334-168.212-16.857-15.439-18.078-41.826-2.796-58.998 8.153-9.019 19.259-13.627 30.405-13.627 9.846 0 19.732 3.505 27.609 10.831 63.724 58.762 100.352 142.533 100.352 230.006 0.079 87.513-36.431 171.362-100.076 229.927zM1452.386 833.812c-16.62 16.384-43.678 16.423-60.495 0.158s-16.896-42.693-0.158-59.038c90.427-88.615 140.209-206.612 140.209-332.17 0-125.401-49.9-243.318-140.446-332.012-16.66-16.384-16.62-42.85 0.158-59.077 8.35-8.074 19.298-12.17 30.247-12.17s22.016 4.096 30.366 12.288c106.654 104.527 165.415 243.358 165.415 390.932-0.158 147.81-58.762 286.72-165.297 391.089zM297.196 442.604c0 64.039 26.624 125.282 73.098 168.054 16.817 15.478 18.078 41.866 2.875 58.959-15.281 17.093-41.236 18.393-58.053 2.914-63.606-58.565-100.116-142.336-100.116-229.888 0-87.434 36.549-171.284 100.273-229.967 7.877-7.404 17.762-10.87 27.609-10.87 11.225 0 22.331 4.608 30.444 13.666 15.242 17.172 13.982 43.52-2.796 58.998-46.592 43.008-73.334 104.251-73.334 168.133zM127.134 442.604c0 125.558 49.822 243.594 140.249 332.17 16.66 16.384 16.62 42.772-0.158 59.077-16.778 16.226-43.914 16.187-60.534-0.158-106.535-104.369-165.179-243.318-165.179-391.089 0-147.535 58.722-286.366 165.376-390.892 8.389-8.153 19.417-12.288 30.366-12.288s21.819 4.057 30.208 12.209c16.778 16.226 16.857 42.693 0.158 58.998-90.585 88.773-140.485 206.69-140.485 331.973zM932.234 910.1h-219.412l-48.955-63.921h323.348zM1156.844 638.582c-1.93 21.189-17.172 38.873-38.321 38.873h-132.057v146.353l-73.689-13.115v-133.238h-175.301v132.45l-73.649 13.903v-146.353h-129.851c-21.15 0-35.84-17.408-38.282-38.873l-54.39-616.645c0-21.543 17.132-38.912 38.321-38.912h686.75c21.15 0 38.321 17.369 38.321 38.912l-47.852 616.645z" />
<glyph unicode="&#xe627;" glyph-name="phone" d="M880.994 253.991c-58.683 50.53-117.996 81.526-174.789 32.453l-33.831-29.617c-24.773-21.543-70.065-122.919-252.849 87.394-182.745 209.999-76.052 240.994-51.2 262.302l34.028 29.657c56.438 49.191 34.068 112.246-7.916 177.388l-25.364 39.503c-42.102 65.024-87.67 107.953-144.226 58.919l-30.523-26.742c-25.088-18.156-94.956-77.312-110.631-191.252-18.865-136.665 48.207-294.361 199.562-468.441 151.119-174.080 298.142-262.38 436.224-262.695 114.688-0.236 183.296 60.692 204.682 82.905l30.681 26.703c56.399 49.073 20.322 100.155-38.479 150.922l-35.367 30.602z" />
<glyph unicode="&#xe628;" glyph-name="vend" d="M817.782 511.449c-12.642 0-21.543-7.404-26.978-22.213-5.12-13.785-7.68-39.503-7.68-77.194 0-37.809 2.442-64.315 7.483-79.321 5.159-15.084 14.218-22.607 27.136-22.607 11.855 0 20.441 7.798 25.758 23.434 5.317 16.699 7.995 42.457 7.995 77.115 0 34.934-2.678 60.731-7.995 77.509-5.317 15.557-13.903 23.276-25.718 23.276zM378.053 514.363c-10.831 0-18.55-5.238-23.079-15.872-4.608-9.531-7.995-29.381-10.161-59.668h66.56c-2.284 30.287-5.632 50.137-10.279 59.668-4.766 10.594-12.446 15.872-23.040 15.872zM511.961 960c-282.742 0-511.961-229.179-511.961-511.961 0-282.742 229.218-511.961 511.961-511.961s511.961 229.218 511.961 511.961c0 282.782-229.218 511.961-511.961 511.961zM197.711 266.713h-35.446l-76.997 287.902h56.399l20.598-91.254c4.254-18.55 7.798-38.203 10.752-58.959 2.875-20.638 5.356-43.284 7.129-67.82 1.063 5.79 1.654 9.137 1.654 10.043l6.341 42.89c2.363 16.345 7.010 40.999 13.982 73.846l18.944 91.294h50.846l-74.201-287.941zM464.935 400.423h-120.162c0-61.44 12.052-92.199 36.155-92.199 21.898 0 32.847 18.59 32.847 55.65h48.994c-3.86-67.663-31.311-101.494-82.314-101.494-15.202 0-28.239 2.836-39.188 8.625-10.87 5.75-19.81 14.69-26.978 26.742-7.207 12.091-12.406 27.333-15.793 45.922s-5.12 40.566-5.12 66.206c0 50.924 7.010 88.537 21.031 113.034 14.021 24.537 35.643 36.706 64.945 36.706 57.068 0 85.583-50.806 85.583-152.418v-6.774zM680.33 266.713h-52.5l-0.315 192.748c0 19.456-2.284 33.241-6.853 41.472-4.49 8.153-12.288 12.209-23.394 12.209-5.986 0-11.028-1.063-15.202-3.151-4.057-2.206-7.404-5.593-9.964-10.319-2.442-4.766-4.332-10.91-5.553-18.55-1.182-7.522-1.772-16.975-1.772-28.081v-186.289h-52.618v287.902h52.618v-33.162c14.927 25.442 34.265 38.124 58.053 38.124 23.001 0 39.385-9.137 49.27-27.609 5.553-10.319 8.192-30.484 8.192-60.337v-204.958zM849.762 266.713v37.022c-7.483-15.754-15.045-26.624-22.528-32.532-7.483-5.829-17.447-8.862-29.893-8.862-23.434 0-40.566 12.209-51.673 36.628-10.949 24.418-16.384 62.74-16.384 115.003 0 25.324 1.378 47.025 4.057 65.378 2.757 18.471 6.932 33.556 12.524 45.45 5.553 11.815 12.721 20.638 21.543 26.27 8.783 5.671 19.102 8.468 31.271 8.468 11.461 0 21.031-2.796 28.554-8.35 3.663-2.56 7.404-6.38 11.264-11.106 3.86-4.884 7.601-10.831 11.264-17.881v219.648l52.5-0.079v-475.018h-52.5z" />
<glyph unicode="&#xe629;" glyph-name="letter" horiz-adv-x="1076" d="M682.567 291.147c167.366 126.613 334.148 252.993 380.319 288.664v-572.273l-380.319 283.609zM872.954 858.818h-670.059v-387.137c-71.784 53.507-133.82 99.574-169.18 125.732l144.306 104.15v181.144h251.023l74.259 53.598c19.171 14.31 50.267 14.31 69.451 0l73.482-53.598h251.567v-183.49l141.156-102.944c-40.947-30.953-92.795-70.734-166.031-126.652v389.198zM12.962 7.395v572.416c46.184-35.684 213.018-162.103 380.41-288.755l-380.41-283.661zM759.121 479.070h-442.407v25.367h442.407v-25.367zM759.121 542.234h-442.407v25.38h442.407v-25.38zM759.121 782.42v-63.294h-189.557v63.294h189.557zM759.121 605.424h-442.407v25.367h442.407v-25.367zM503.315 337.395c19.171 14.31 50.267 14.31 69.451 0l451.467-336.65c19.171-14.31 19.171-37.486 0-51.783h-972.385c-19.171 14.31-19.171 37.486 0 51.783l451.467 336.65z" />
<glyph unicode="&#xe62a;" glyph-name="trash" horiz-adv-x="870" d="M789.094 643.84v-589.875c0-65.075-52.838-117.965-117.965-117.965h-471.859c-65.075 0-118.016 52.838-118.016 117.965v589.875h-78.643v78.643h39.322v39.322c0 21.658 17.715 39.373 39.373 39.373h155.75v16.794c-0.051 78.336 62.413 142.029 139.162 142.029h118.016c76.749 0 139.213-63.693 139.213-142.029v-16.845h155.699c21.709 0 39.424-17.664 39.424-39.373v-39.322h39.322v-78.643h-78.797zM159.898 53.965c0-21.658 17.664-39.373 39.373-39.373h471.91c21.658 0 39.373 17.715 39.373 39.373v589.875h-550.656v-589.875zM551.526 817.971c0 33.229-25.702 60.211-57.344 60.211h-117.965c-31.642 0-57.446-26.982-57.446-60.211v-16.845h232.806v16.845zM238.541 93.235v471.91h78.643v-471.91h-78.643zM474.522 93.235h-78.643v471.91h78.592v-471.91zM631.859 93.235h-78.694v471.91h78.694v-471.91z" />
<glyph unicode="&#xe62b;" glyph-name="appointment" horiz-adv-x="977" d="M860.602 657.897h-790.225v-568.436c0-20.271 16.524-36.817 36.794-36.817h358.284c10.519-25.274 24.529-48.687 41.169-69.958h-395.799c-60.951 0-110.383 49.455-110.383 110.406v639.86c0 60.975 49.431 110.383 110.383 110.383h29.463v46.848c0 38.563 31.255 69.818 69.818 69.818s69.818-31.255 69.818-69.818v-46.848h371.805v46.848c0 38.563 31.255 69.818 69.818 69.818s69.818-31.255 69.818-69.818v-46.848h28.812c60.951 0 110.383-49.408 110.383-110.383v-325.818c-21.248 16.593-44.684 30.534-69.958 41.030v209.734zM744.797 400.826c128.186 0 232.099-103.913 232.099-232.099s-103.913-232.099-232.099-232.099-232.099 103.913-232.099 232.099 103.913 232.099 232.099 232.099zM643.002 87.133c6.516-11.311 20.945-15.174 32.256-8.634l78.801 45.498c0.465 0.186 0.815 0.489 1.257 0.698l1.699 0.977c0.326 0.186 0.489 0.489 0.791 0.698 2.048 1.35 3.863 2.863 5.399 4.771 0.652 0.791 1.14 1.652 1.676 2.513 0.954 1.536 1.792 3.072 2.374 4.817 0.535 1.559 0.768 3.142 0.977 4.794 0.093 0.838 0.489 1.606 0.489 2.467v164.259c0 13.056-10.566 23.599-23.622 23.599-13.033 0-23.599-10.543-23.599-23.599v-150.295l-69.865-40.332c-11.264-6.516-15.151-20.945-8.634-32.233z" />
<glyph unicode="&#xe62c;" glyph-name="table_cake" horiz-adv-x="569" d="M174.080 838.827c-42.098-39.822-69.973-93.867-76.8-152.462h-22.756c9.102 64.284 46.080 120.036 99.556 152.462zM218.453 865.564c-80.782-25.6-140.516-97.28-149.618-184.32h34.133c6.827 77.938 51.2 145.636 115.484 184.32v0zM540.444 647.111h-512c-9.671 0-17.067-7.396-17.067-17.067s7.396-17.067 17.067-17.067h233.244v-512c0-62.578-16.498-96.711-35.271-119.467h-27.307c-6.258 0-11.378-5.12-11.378-11.378v-22.756c48.356 0 143.929 0 193.422 0v22.756c0 6.258-5.12 11.378-11.378 11.378h-27.307c-18.773 22.756-35.271 56.889-35.271 119.467v512h233.244c9.671 0 17.067 7.396 17.067 17.067s-7.396 17.067-17.067 17.067zM369.778-29.867v-11.378h-170.667v11.378h170.667zM327.68-18.489h-87.040c17.067 23.324 31.858 59.164 31.858 119.467v512h22.756v-512c0.569-60.302 15.36-96.142 32.427-119.467zM534.756 658.489c0 133.689-106.382 242.347-238.933 246.898v6.258c6.827 3.982 11.378 11.378 11.378 19.342 0 12.516-10.24 22.756-22.756 22.756s-22.756-10.24-22.756-22.756c0-8.533 4.551-15.36 11.378-19.342v-6.827c-130.276-7.396-233.244-114.916-233.244-246.898 54.044 0 112.071 0 172.942 0v0h142.791c58.596 0.569 118.329 0.569 179.2 0.569zM51.2 669.867c6.258 124.587 109.796 224.711 236.089 224.711s228.693-99.556 234.951-224.711h-162.702l21.618 68.267c0 0 0.569 0 0.569 0 0 7.396-4.551 13.653-12.516 17.636 0 0 0 0 0 0-5.689 41.529-41.529 73.387-84.196 73.387-43.236 0-78.507-31.858-84.196-73.387-7.396-3.982-11.947-10.24-11.947-17.636 0 0 0 0 0 0l21.618-68.267h-159.289zM261.12 669.867l-4.551 62.009 6.258 9.102c2.844 3.982 10.809 8.533 21.618 8.533s18.773-4.551 21.618-8.533l5.689-9.102-4.551-62.009h-46.080zM221.298 669.867l-21.618 69.404c1.707 4.551 10.24 10.24 22.187 10.24 10.809 0 18.773-4.551 21.618-8.533l7.396-11.378 3.982-59.164h-33.564zM233.244 777.956c6.258 0 12.516 2.276 17.067 6.827 4.551-4.551 10.809-6.827 17.067-6.827s12.516 2.276 17.067 6.827c4.551-4.551 10.809-6.827 17.067-6.827s12.516 2.276 17.067 6.827c4.551-4.551 10.809-6.827 17.067-6.827 4.551 0 8.533 1.138 12.516 3.413 3.982-6.258 6.827-13.653 8.533-21.049 0 0 0 0 0 0-2.844 0.569-6.258 1.138-9.671 1.138-14.222 0-26.169-5.689-31.289-13.653-5.12 7.964-17.067 13.653-31.289 13.653s-26.169-5.689-31.289-13.653c-5.12 7.964-17.067 13.653-31.289 13.653-3.413 0-6.827-0.569-9.671-1.138 1.707 7.396 4.551 14.791 8.533 21.049 3.982-2.276 7.964-3.413 12.516-3.413zM224.142 785.92c13.084 19.342 35.271 31.858 60.302 31.858s47.218-12.516 60.302-31.858c-2.844-1.707-6.258-2.276-9.102-2.276-5.689 0-11.378 2.276-14.791 6.827l-2.276 2.276-2.276-2.276c-3.982-4.551-9.102-6.827-14.791-6.827s-11.378 2.276-14.791 6.827l-2.276 2.276-2.276-2.276c-3.982-4.551-9.102-6.827-14.791-6.827s-11.378 2.276-14.791 6.827l-2.276 2.276-2.276-2.276c-3.982-4.551-9.102-6.827-14.791-6.827-3.413 0-6.258 1.138-9.102 2.276zM313.458 669.867l3.982 59.164 7.964 11.947c2.844 3.982 10.809 8.533 21.618 8.533 11.947 0 20.48-5.12 22.187-9.671l-22.187-69.973h-33.564z" />
<glyph unicode="&#xe62d;" glyph-name="unfinished" horiz-adv-x="1327" d="M1270.955 445.25h-50.593v-50.612c0-4.494-101.224-404.84-101.224-404.84-11.852-28.482-22.718-50.612-50.612-50.612h-809.662c-22.926 0-35.575 23.723-50.593 50.612 0 0-101.205 400.327-101.205 404.84v50.612h-50.612c-27.876 0-50.612 22.718-50.612 50.593v157.165c0 27.876 22.737 50.593 50.612 50.593h173.132c-26.188-40.372-21.637-94.985 13.748-130.276 19.721-19.759 45.871-30.53 73.69-30.53 27.876 0 54.025 10.771 73.728 30.53l130.276 130.276h287.099l130.276-130.276c19.721-19.759 45.852-30.53 73.728-30.53 27.838 0 53.969 10.771 73.69 30.53 35.385 35.29 39.936 89.903 13.748 130.276h171.444c27.876 0 50.612-22.737 50.612-50.593v-157.165c-0.057-27.857-22.793-50.593-50.669-50.593zM628.11 74.259c8.514-8.23 20.556-12.345 36.105-12.345 15.189 0 27.041 4.21 35.556 12.648 8.514 8.401 12.781 19.949 12.781 34.569 0 15.189-4.229 26.852-12.629 35.006-8.439 8.154-20.328 12.231-35.707 12.231-15.929 0-28.046-3.982-36.39-11.947s-12.497-19.721-12.497-35.271c0-15.019 4.267-26.643 12.781-34.892zM771.584 453.86c-22.528 18.337-52.831 27.496-90.984 27.496-46.289 0-90.093-11.567-131.394-34.721l30.284-60.833c35.556 18.148 67.224 27.231 95.004 27.231 15.929 0 28.331-3.148 37.224-9.444s13.331-15.455 13.331-27.496c0-10.733-3.11-20.461-9.311-29.165s-19.020-20.006-38.457-33.887c-20.177-14.81-34.076-28.805-41.662-41.946s-11.397-28.615-11.397-46.383v-20.556h73.614v16.668c0 11.112 2.351 20.101 7.073 26.946s15.986 16.858 33.754 29.999c25.922 18.527 43.52 35.176 52.774 50.005s13.881 32.408 13.881 52.774c0.019 30.53-11.245 54.974-33.735 73.311zM1001.813 607.156c-12.857 0-25.657 4.892-35.48 14.677l-254.711 249.42c-19.57 19.57-19.57 51.295 0 70.865s51.295 19.57 70.865 0l254.767-249.363c19.551-19.627 19.551-51.295 0-70.921-9.785-9.785-22.642-14.677-35.442-14.677zM362.761 620.525c-9.842-9.785-22.642-14.677-35.499-14.677-12.8 0-25.657 4.892-35.423 14.677-19.57 19.627-19.57 51.295 0 70.921l254.748 249.363c19.57 19.57 51.314 19.57 70.865 0 19.57-19.57 19.57-51.314 0-70.865l-254.692-249.42z" />
<glyph unicode="&#xe62e;" glyph-name="customer_groups" horiz-adv-x="1240" d="M225.37-30.98h791.049v53.446h-791.049v-53.446zM1119.789 676.981c-55.152 0-99.993-44.804-99.993-99.993 0-24.342 9.090-46.403 23.552-63.704l-223.537-186.296-162.87 407.3c36.81 14.731 62.877 50.607 62.877 92.699 0 55.206-44.84 99.993-100.011 99.993-55.206 0-99.993-44.804-99.993-99.993 0-42.092 26.103-77.968 62.895-92.699l-162.888-407.3-223.573 186.296c14.498 17.3 23.552 39.361 23.552 63.704 0 55.206-44.804 99.993-99.993 99.993s-100.047-44.804-100.047-99.993 44.804-100.011 99.993-100.011c7.060 0 13.887 0.755 20.57 2.156l84.453-420.145h790.043l84.453 420.145c6.665-1.347 13.51-2.156 20.534-2.156 55.188 0 100.029 44.804 100.029 100.011s-44.858 99.993-100.047 99.993zM422.966 167.119c-19.923 0-36.092 16.132-36.092 36.074s16.15 36.109 36.092 36.109c19.923 0 36.074-16.168 36.074-36.109s-16.15-36.074-36.074-36.074zM620.562 133.47c-38.535 0-69.776 31.259-69.776 69.794s31.241 69.758 69.776 69.758c38.535 0 69.794-31.223 69.794-69.758s-31.259-69.794-69.794-69.794zM818.176 167.119c-19.923 0-36.074 16.132-36.074 36.074s16.132 36.109 36.074 36.109 36.109-16.168 36.109-36.109-16.186-36.074-36.109-36.074z" />
<glyph unicode="&#xe62f;" glyph-name="product_box" d="M944.443 642.166h79.557l-105.945 176.443h-812.111l-105.945-176.443h265.058l76.012 141.391h24.812l76.012-141.391h502.548zM900.332 606.72v-529.723h-776.665v529.723h169.748l41.748 87.828v-582.105h35.446v582.105l42.142-87.828h487.582z" />
<glyph unicode="&#xe630;" glyph-name="apps" d="M905.846 487.385c-57.108 0-78.769-39.385-78.769-39.385v236.308c0 77.194-27.175 78.769-95.705 78.769h-219.372c0 0 36.234 22.843 39.385 78.769s-68.529 118.154-137.058 118.154-139.422-59.865-138.634-118.154 39.385-78.769 39.385-78.769h-217.403c-53.957 0-97.674-42.142-97.674-95.705v-219.372l73.255 39.385c72.862 0 123.668-63.803 123.668-137.058s-50.806-138.634-123.668-138.634l-73.255 39.385v-217.403c0-53.957 43.717-97.674 97.674-97.674h217.403l-39.385 73.255c0 72.862 65.772 123.668 138.634 123.668s137.058-50.806 137.058-123.668l-39.385-73.255h219.372c53.563 0 95.705 43.717 95.705 97.674v217.403c0 0 30.72-38.597 78.769-39.385s118.154 55.532 118.154 138.634c0 68.529-61.046 137.058-118.154 137.058z" />
<glyph unicode="&#xe639;" glyph-name="odn" horiz-adv-x="643" d="M321.965 119.367c55.725-55.725 109.544-109.544 146.694-146.694 22.385-22.385 58.582-22.385 80.967 0l6.668 6.668c22.385 22.385 22.385 58.582 0 80.967l-186.225 185.749c47.628 4.763 120.022 17.622 172.889 51.914 62.393 40.007 90.493 63.821 65.727 113.354-14.288 28.1-52.867 51.914-104.781 10.954-70.013-55.248-182.415-55.248-182.415-55.248s-112.402 0-182.415 55.248c-51.914 40.96-90.969 17.146-104.781-10.954-24.767-49.057 2.858-72.871 65.727-112.878 53.343-34.292 126.69-47.152 174.318-51.914l-39.531-39.531c-55.725-55.725-109.544-109.544-146.694-146.694-22.385-22.385-22.385-58.582 0-80.967l6.668-6.668c10.954-10.954 25.719-16.67 40.484-16.67v0c14.765 0 29.053 5.715 40.484 16.67l146.218 146.694zM72.394 691.379c0-137.645 111.449-249.094 249.094-249.094s249.094 111.449 249.094 249.094c0 137.645-111.449 249.094-249.094 249.094s-249.094-111.449-249.094-249.094zM321.488 813.782c67.632 0 122.404-54.772 122.404-122.404s-54.772-122.404-122.404-122.404c-67.632 0-122.404 54.772-122.404 122.404s54.772 122.404 122.404 122.404z" />
<glyph unicode="&#xe63a;" glyph-name="vk" horiz-adv-x="1737" d="M839.335-8.198h97.222c0 0 29.339 3.452 44.297 19.56 13.807 14.957 13.231 42.571 13.231 42.571s-1.726 130.013 58.679 149.573c59.829 18.984 136.342-125.987 217.456-181.789 61.555-41.996 108.153-32.791 108.153-32.791l216.881 2.876c0 0 113.33 6.903 59.829 96.072-4.602 7.479-31.065 66.157-161.079 186.391-135.766 125.987-117.933 105.852 46.022 323.883 99.524 132.89 139.793 214.004 127.137 249.097-12.081 33.366-85.142 24.162-85.142 24.162l-243.919-1.726c0 0-17.834 2.301-31.64-5.753-13.231-8.054-21.285-26.463-21.285-26.463s-38.544-102.975-90.319-190.418c-109.879-183.515-153.6-193.294-171.434-181.789-41.42 26.463-31.065 107.578-31.065 164.53 0 178.912 27.038 253.699-52.926 272.683-26.463 6.328-46.022 10.355-113.906 11.506-86.867 1.151-161.079 0-202.499-20.71-27.613-13.807-49.474-43.721-36.243-45.447 16.108-2.301 52.926-9.78 71.91-36.243 25.312-33.942 24.162-110.454 24.162-110.454s14.382-210.553-33.366-237.016c-32.791-17.834-78.238 18.409-174.885 186.391-49.474 85.717-86.867 180.638-86.867 180.638s-7.479 17.834-20.135 27.038c-15.533 11.506-37.393 14.957-37.393 14.957l-232.413-1.726c0 0-35.092-1.151-47.748-16.108-11.506-13.231-1.151-41.42-1.151-41.42s181.789-425.133 387.164-639.137c189.267-196.171 403.272-182.939 403.272-182.939v0 0z" />
<glyph unicode="&#xe63b;" glyph-name="coupons" horiz-adv-x="1977" d="M1849.768 670.826c-81.567-36.723-189.228-55.402-281.865-174.433l-34.816-44.721 38.824-50.123c92.354-119.261 199.98-138.169 281.459-175.069 71.274-25.459 113.382-110.751 87.481-182.325-21.239-72.316-107.326-104.66-175.81-84.692-69.862 14.972-127.77 87.040-111.651 157.572 16.772 73.463 40.572 60.098 48.481 87.905 10.134 35.558-95.673 58.244-240.428 163.24l-8.28 6.073-219.948-155.065h-200.563l316.522 231.53-503.278 369.876c73.234 45.903 150.14 24.647 207.943-10.77l399.448-282.924 4.22 3.090c145.002 104.678 250.845 127.135 240.799 162.71-7.839 27.807-31.673 14.513-48.287 88.011-15.943 70.568 42.125 142.513 112.022 157.325 68.537 19.791 154.536-12.729 175.616-85.098 25.741-71.609-16.561-156.813-87.887-182.113zM1731.354 28.372c41.666-41.754 127.735-42.161 157.661 14.689 42.655 67.531-25.406 158.367-100.158 154.059-81.231 0.177-118.343-107.732-57.503-168.748zM1447.724 476.707c-15.466 0-28.019-12.535-28.019-28.001s12.553-28.019 28.019-28.019 28.019 12.553 28.019 28.019-12.553 28.001-28.019 28.001zM1885.784 854.157c-29.802 56.92-115.853 56.708-157.625 15.042-60.981-60.875-24.099-168.872 57.114-168.854 74.77-4.502 143.025 86.193 100.511 153.812zM723.862 254.499h105.931v-35.31h-105.931v35.31zM547.31 254.499h105.931v-35.31h-105.931v35.31zM370.759 254.499h105.931v-35.31h-105.931v35.31zM194.207 254.499h105.931v-35.31h-105.931v35.31zM17.655 254.499h105.931v-35.31h-105.931v35.31zM1006.345 219.189h-105.931v35.31h105.931v-35.31zM1430.069 219.189h-105.931v35.31h105.931v-35.31zM1606.621 219.189h-105.931v35.31h105.931v-35.31z" />
</font>
</defs>
</svg>
