<?xml version="1.0" standalone="no"?>
<!DOCTYPE svg PUBLIC "-//W3C//DTD SVG 1.1//EN" "http://www.w3.org/Graphics/SVG/1.1/DTD/svg11.dtd" >
<svg xmlns="http://www.w3.org/2000/svg">
<metadata>Generated by IcoMoon</metadata>
<defs>
<font id="fontIcons" horiz-adv-x="512">
<font-face units-per-em="512" ascent="480" descent="-32" />
<missing-glyph horiz-adv-x="512" />
<glyph unicode="&#x20;" d="" horiz-adv-x="256" />
<glyph unicode="&#xe000;" d="M419.825 60.077h-97.513v29.704h97.009c12.349 0 22.37 10.014 22.37 22.37v223.691c-94.781 0-317.688 0-380.28 0v-223.691c0-12.356 10.013-22.37 22.37-22.37h89.262v-29.704h-89.999c-28.529 0-51.682 23.145-51.682 51.675l-0.003 284.197c0 28.544 23.145 51.675 51.683 51.675h336.791c28.529 0 51.675-23.131 51.675-51.675v-284.205c-0.008-28.521-23.153-51.666-51.683-51.666zM98.921 390.573c0 6.845-5.534 12.379-12.379 12.379h-12.386c-6.844 0-12.379-5.534-12.379-12.379v-12.386c0-6.845 5.534-12.379 12.379-12.379h12.386c6.844 0 12.379 5.534 12.379 12.379v12.386zM150.589 390.573c0 6.845-5.534 12.379-12.379 12.379h-12.379c-6.844 0-12.386-5.534-12.386-12.379v-12.386c0-6.845 5.541-12.379 12.386-12.379h12.379c6.845 0 12.379 5.534 12.379 12.379v12.386zM441.615 402.944h-268.582v-37.128h268.582v37.128zM220.626 137.134h-42.601c-3.291 0-6.257 1.815-7.514 4.841-0.422 1.009-0.617 2.077-0.617 3.125 0 2.123 0.821 4.209 2.38 5.76l77.583 86.385c3.162 3.162 8.343 3.162 11.505 0l76.905-86.385c2.319-2.327 3.012-5.851 1.762-8.877-1.265-3.026-4.224-4.841-7.514-4.841h-41.923c0-55.575-26.94-135.138-164.503-135.138 82.145 23.824 94.538 63.036 94.538 135.131z" horiz-adv-x="489" />
<glyph unicode="&#xe001;" d="M346.499 264.601q0 52.857-37.572 90.428t-90.428 37.572-90.428-37.572-37.572-90.428 37.572-90.428 90.428-37.572 90.428 37.572 37.572 90.428zM492.784 26.886q0-14.857-10.857-25.714t-25.714-10.857q-15.428 0-25.714 10.857l-98 97.714q-51.143-35.428-114-35.428-40.857 0-78.143 15.857t-64.285 42.857-42.857 64.286-15.857 78.143 15.857 78.143 42.857 64.286 64.285 42.857 78.143 15.857q40.857 0 78.143-15.857t64.286-42.857 42.857-64.286 15.857-78.143q0-62.857-35.428-114l98-98q10.572-10.572 10.572-25.714z" />
<glyph unicode="&#xe002;" d="M36.385 224.004c0-86.922 50.521-162.047 123.774-197.647l-104.76 287.021c-12.175-27.308-19.014-57.54-19.014-89.374zM404.258 235.084c0 27.144-9.748 45.945-18.115 60.563-11.129 18.090-21.572 33.411-21.572 51.502 0 20.183 15.313 38.975 36.875 38.975 0.973 0 1.896-0.123 2.851-0.171-39.074 35.797-91.123 57.654-148.303 57.654-76.725 0-144.218-39.368-183.487-98.983 5.156-0.163 10.017-0.262 14.136-0.262 22.969 0 58.529 2.786 58.529 2.786 11.839 0.695 13.237-16.694 1.405-18.090 0 0-11.897-1.397-25.134-2.1l79.978-237.873 48.061 144.136-34.22 93.737c-11.823 0.695-23.034 2.1-23.034 2.1-11.832 0.694-10.442 18.793 1.389 18.090 0 0 36.263-2.786 57.842-2.786 22.969 0 58.521 2.786 58.521 2.786 11.848 0.695 13.245-16.694 1.413-18.090 0 0-11.921-1.397-25.134-2.1l79.365-236.075 21.906 73.195c9.495 30.396 16.726 52.212 16.726 71.005zM259.853 204.794l-65.891-191.47c19.675-5.785 40.479-8.956 62.034-8.956 25.567 0 50.105 4.428 72.934 12.452-0.589 0.932-1.127 1.928-1.56 3.015l-67.517 184.957zM448.7 329.361c0.94-6.995 1.479-14.495 1.479-22.577 0-22.282-4.167-47.326-16.702-78.654l-67.076-193.946c65.286 38.068 109.205 108.805 109.205 189.827 0 38.174-9.748 74.078-26.907 105.348zM255.996 480c-141.153 0-255.996-114.842-255.996-255.996 0-141.177 114.843-256.013 255.996-256.013 141.145 0 256.013 114.834 256.013 256.012 0 141.153-114.867 255.996-256.012 255.996zM255.996-20.267c-134.673 0-244.262 109.572-244.262 244.27 0 134.674 109.581 244.255 244.262 244.255s244.254-109.573 244.254-244.255c0-134.69-109.581-244.27-244.255-244.27z" />
<glyph unicode="&#xe003;" d="M484.569 370.287h-118.856c-11.139 0-25.425-4.855-36.575-11.427v93.709c0 15.14-12.281 27.431-27.42 27.431h-118.856c-15.14 0-36.286-8.856-46.859-19.429l-116.573-116.573c-10.573-10.574-19.429-31.72-19.429-46.86v-192.005c0-15.14 12.28-27.42 27.431-27.42h155.431v-82.293c0-15.14 12.28-27.42 27.431-27.42h274.287c15.14 0 27.42 12.281 27.42 27.42v347.436c0 15.14-12.291 27.431-27.431 27.431zM329.139 309.429v-85.429h-85.43l85.43 85.43zM146.287 419.142v-85.43h-85.43l85.43 85.43zM202.28 234.285c-10.573-10.573-19.429-31.72-19.429-46.859v-73.138h-146.276v182.851h118.856c15.14 0 27.431 12.28 27.431 27.42v118.867h109.713v-118.867l-90.294-90.273zM475.425 4.564h-256v182.862h118.856c15.14 0 27.42 12.281 27.42 27.42v118.867h109.724v-329.149z" />
<glyph unicode="&#xe004;" d="M168.154-32v64.002c72.149 12.539 111.691 60.228 111.691 116.083 0 56.462-30.119 90.974-104.788 117.327-53.346 20.069-75.297 33.246-75.297 53.963 0 17.57 13.177 35.139 53.963 35.139 45.168 0 74.042-14.432 90.356-21.334l18.197 70.905c-20.707 10.039-48.953 18.824-90.984 20.696v55.218h-61.493v-59.611c-67.14-13.177-106.043-56.473-106.043-111.691 0-60.855 45.806-92.228 112.946-114.818 46.434-15.687 66.502-30.736 66.502-54.591 0-25.089-24.471-38.904-60.238-38.904-40.775 0-77.796 13.177-104.15 27.62l-18.814-73.425c23.834-13.794 64.63-25.089 106.66-26.971v-59.611h61.493z" horiz-adv-x="280" />
<glyph unicode="&#xe005;" d="M126.976 391.857l169.216-167.719-169.472-168.015c-15.793-15.656-15.793-41.039 0-56.694 15.833-15.656 41.433-15.656 57.226 0l198.045 196.313c7.916 7.837 11.894 18.137 11.855 28.416 0 10.26-3.919 20.539-11.855 28.357l-197.75 196.056c-15.813 15.656-41.433 15.656-57.265 0-15.793-15.656-15.793-41.059 0-56.714z" />
<glyph unicode="&#xe006;" d="M381.755 391.857l-169.216-167.719 169.452-168.015c15.793-15.656 15.793-41.039 0-56.694-15.832-15.656-41.433-15.656-57.226 0l-198.026 196.313c-7.916 7.837-11.874 18.137-11.855 28.416 0 10.26 3.939 20.539 11.874 28.357l197.75 196.056c15.813 15.656 41.433 15.656 57.265 0 15.793-15.656 15.793-41.059-0.019-56.714z" />
<glyph unicode="&#xe007;" d="M743.153 456.651l-306.861-309.587-307.345 310.060c-28.663 28.923-75.129 28.923-103.801 0-28.672-28.913-28.672-75.805 0-104.728l359.173-362.361c14.356-14.49 33.183-21.716 51.992-21.688 18.799-0.009 37.597 7.216 51.944 21.697l358.7 361.877c28.663 28.913 28.663 75.796 0 104.719-28.671 28.933-75.137 28.933-103.8 0.010z" horiz-adv-x="869" />
<glyph unicode="&#xe008;" d="M125.347-8.651l306.861 309.587 307.345-310.060c28.663-28.923 75.129-28.923 103.801 0 28.672 28.913 28.672 75.805 0 104.728l-359.173 362.361c-14.356 14.49-33.183 21.716-51.992 21.688-18.799 0.009-37.598-7.216-51.944-21.697l-358.7-361.877c-28.663-28.913-28.663-75.796 0-104.719 28.671-28.932 75.137-28.932 103.8-0.010z" horiz-adv-x="869" />
<glyph unicode="&#xe009;" d="M877.974 406.998c0 7.029-3.525 14.955-8.803 20.232l-43.99 43.989c-5.299 5.255-13.203 8.781-20.232 8.781s-14.977-3.526-20.232-8.781l-345.742-345.72-345.72 345.72c-5.277 5.255-13.204 8.781-20.232 8.781-7.927 0-14.955-3.526-20.232-8.781l-43.989-43.99c-5.277-5.277-8.803-13.203-8.803-20.232 0-7.050 3.526-14.955 8.803-20.232l409.942-409.963c5.277-5.255 13.204-8.781 20.232-8.781s14.955 3.526 20.232 8.781l409.942 409.942c5.299 5.277 8.824 13.204 8.824 20.254z" horiz-adv-x="878" />
<glyph unicode="&#xe00a;" d="M512 437.326c0 8.666-5.349 16.346-13 19.663-8.009 3.317-17.332 1.673-23.339-4.662l-43.332-43.003c-47.007 44.348-110.66 70.675-176.345 70.675-140.992 0-255.985-115.023-255.985-255.985 0-141.022 114.993-255.985 255.985-255.985 76.323 0 148.343 33.679 196.994 92.341 3.347 4.333 3.347 10.639-0.658 14.315l-45.632 45.991c-2.331 2.002-5.349 3.019-8.337 3.019-3.019-0.358-6.007-1.673-7.651-4.005-32.693-42.346-81.673-66.342-134.686-66.342-94.014 0-170.667 76.652-170.667 170.667s76.652 170.667 170.667 170.667c43.661 0 85.019-16.675 116.338-45.663l-46.021-46.021c-6.336-6.006-8.009-15.331-4.662-23.010 3.317-8.009 10.998-13.328 19.663-13.328h149.329c11.685 0 21.337 9.652 21.337 21.337v149.329z" />
<glyph unicode="&#xe00b;" d="M432.825 466.401l-178.722-180.309-179.002 180.584c-16.694 16.845-43.757 16.845-60.455 0-16.7-16.84-16.7-44.15 0-60.995l209.189-211.046c8.361-8.44 19.327-12.648 30.281-12.625 10.949-0.012 21.899 4.197 30.259 12.631l208.913 210.77c16.693 16.84 16.693 44.144 0 60.99-16.705 16.846-43.768 16.846-60.462 0zM75.1-17.473l178.722 180.309 178.998-180.589c16.694-16.84 43.757-16.84 60.455 0s16.7 44.149 0 60.995l-209.183 211.046c-8.361 8.44-19.321 12.648-30.281 12.631-10.948 0.006-21.899-4.203-30.252-12.636l-208.913-210.763c-16.694-16.84-16.694-44.144 0-60.99 16.698-16.846 43.761-16.846 60.455-0.001z" horiz-adv-x="507" />
<glyph unicode="&#xe00c;" d="M614.42 44.798c0 14.003-11.653 25.622-25.622 25.622h-563.21c-14.004 0-25.588-11.618-25.588-25.622v-51.176c0-14.038 11.585-25.622 25.588-25.622h563.21c13.97 0 25.622 11.584 25.622 25.622v51.176zM614.42 249.571c0 14.004-11.653 25.588-25.622 25.588h-563.21c-14.004 0.034-25.588-11.584-25.588-25.588v-51.176c0-14.003 11.585-25.588 25.588-25.588h563.21c13.97 0 25.622 11.618 25.622 25.588v51.176zM614.42 454.378c0 14.004-11.653 25.622-25.622 25.622h-563.21c-14.004 0-25.588-11.618-25.588-25.622v-51.176c0-14.004 11.585-25.588 25.588-25.588h563.21c13.97 0 25.622 11.618 25.622 25.588v51.176z" horiz-adv-x="615" />
<glyph unicode="&#xe00d;" d="M298.661 437.339c138.673 0 256-78.019 256-170.678s-117.327-170.678-256-170.678c-14.342 0-28.983 0.996-43.325 2.656l-19.023 2.025-14.342-12.682c-27.323-24.003-57.999-42.993-91.663-57.003 8.665 15.338 16.998 33.697 23.339 57.368l8.997 31.971-28.983 16.666c-57.667 32.668-90.999 80.010-90.999 129.676 0 92.66 117.326 170.678 256 170.678zM597.322 266.661c0 117.99-133.661 213.339-298.661 213.339v0c-165 0-298.661-95.349-298.661-213.339 0-67.66 43.989-127.983 112.678-166.993-15.67-55.675-39.64-75.661-60.655-99.332-4.98-6.009-10.657-10.989-8.997-19.322 0 0 0 0 0-0.365 1.693-7.337 7.669-12.649 14.342-12.649 0.365 0 0.996 0 1.693 0 13.014 1.693 25.995 4.017 38.013 7.337 57.634 14.641 109.657 42.031 153.315 80.674 15.67-1.66 32.004-2.656 48.338-2.656 164.935-0.033 298.594 95.315 298.594 213.305z" horiz-adv-x="598" />
<glyph unicode="&#xe00e;" d="M597.322 266.661c0 117.99-133.661 213.339-298.661 213.339v0c-165 0-298.661-95.349-298.661-213.339 0-67.66 43.989-127.983 112.678-166.993-15.67-55.675-39.64-75.628-60.655-99.332-4.98-6.009-10.657-10.989-8.997-19.289 0 0 0 0 0-0.399 1.693-7.337 7.669-12.649 14.342-12.649 0.365 0 0.996 0 1.693 0 13.014 1.693 25.995 4.017 38.013 7.337 57.634 14.641 109.657 42.031 153.315 80.674 15.67-1.627 32.004-2.656 48.338-2.656 164.935-0.033 298.594 95.315 298.594 213.305z" horiz-adv-x="598" />
<glyph unicode="&#xe600;" d="M461.909 411.499c-6.25 6.293-16.426 6.293-22.635 0l-238.528-237.418c-6.25-6.336-16.448-6.336-22.656 0l-104.512 106.432c-3.094 3.158-7.147 4.714-11.221 4.736-4.117 0.022-8.298-1.536-11.434-4.736l-46.187-41.514c-3.072-3.157-4.736-7.104-4.736-11.221 0-4.139 1.664-8.469 4.758-11.606l105.386-110.592c6.23-6.315 16.448-16.555 22.656-22.827l45.312-45.675c6.23-6.25 16.405-6.25 22.656 0l306.474 305.92c6.25 6.272 6.25 16.576 0 22.848l-45.334 45.653z" />
<glyph unicode="&#xe601;" d="M31.728 363.408c-0.408-8.394 46.367-184.365 58.355-207.92 11.981-23.57 33.026-47.269 77.403-49.308 9.651-0.439 41.139-1.195 65.892-0.396s30.233 13.241 30.233 13.241 5.073-12.92 19.053-13.188c16.115-0.3 54.399-0.661 81.401-0.565 17.19 0.065 71.193-8.18 105.82 112.349 11.579 41.535 29.498 135.077 33.527 155.239 4.399 21.969 9.603 34.419 15.584 53.995 5.993 19.569-21.515 14.44-32.23 13.012-11.975-1.607-22.752-8.843-22.752-8.843s-8.108-5.363-18.488-27.737c-10.38-22.365-26.322-138.76-48.728-195.192-2.829-7.168-17.325-32.241-34.267-35.788-17.164-3.587-47.010-1.526-52.435-1.077-9.577 0.8-14.039 15.753-14.039 15.753l0.171 15.184h-60.005v-13.764c0 0-0.606-9.28-9.127-14.601-8.516-5.329-34.51-3.256-48.091-1.656-13.575 1.591-28.367 2.991-42.548 36.632-10.788 25.556-20.674 68.509-29.838 122.047-3.49 20.418-27.972 38.832-54.17 39.748-8.216 0.291-20.291 2.029-20.724-7.163v0zM189.952 364.731c14.262 0 25.827-11.565 25.827-25.822 0-14.268-11.567-25.834-25.827-25.834-14.255 0-25.821 11.568-25.821 25.834 0 14.259 11.567 25.822 25.821 25.822v0zM269.4 364.731c14.252 0 25.818-11.565 25.818-25.822 0-14.268-11.567-25.834-25.818-25.834-14.268 0-25.822 11.568-25.822 25.834 0.001 14.259 11.555 25.822 25.822 25.822v0zM346.072 364.731c14.248 0 25.816-11.565 25.816-25.822 0-14.268-11.568-25.834-25.816-25.834-14.274 0-25.827 11.568-25.827 25.834-0.001 14.259 11.555 25.822 25.827 25.822v0zM189.952 275.268c14.262 0 25.827-11.567 25.827-25.833 0-14.26-11.567-25.823-25.827-25.823-14.255 0-25.821 11.565-25.821 25.823 0 14.268 11.567 25.833 25.821 25.833v0zM269.4 275.268c14.252 0 25.818-11.567 25.818-25.833 0-14.26-11.567-25.823-25.818-25.823-14.268 0-25.822 11.565-25.822 25.823 0.001 14.268 11.555 25.833 25.822 25.833v0zM346.072 275.268c14.248 0 25.816-11.567 25.816-25.833 0-14.26-11.568-25.823-25.816-25.823-14.274 0-25.827 11.565-25.827 25.823-0.001 14.268 11.555 25.833 25.827 25.833v0zM62.74-2.7c-27.353 0-49.523 22.171-49.523 49.524 0 27.349 22.171 49.531 49.523 49.531 27.341 0 49.513-22.183 49.513-49.531 0-27.353-22.172-49.524-49.513-49.524v0zM65.397 65.457c-9.998 0-18.099-8.104-18.099-18.101s8.099-18.104 18.099-18.104 18.104 8.106 18.104 18.104c0 9.997-8.106 18.101-18.104 18.101v0zM471.64-2.7c-27.346 0-49.517 22.171-49.517 49.524 0 27.349 22.171 49.531 49.517 49.531 27.336 0 49.506-22.183 49.506-49.531 0-27.353-22.171-49.524-49.507-49.524v0zM474.298 65.457c-9.998 0-18.104-8.104-18.104-18.101s8.106-18.104 18.104-18.104c9.997 0 18.104 8.106 18.104 18.104s-8.108 18.101-18.104 18.101v0z" horiz-adv-x="533" />
<glyph unicode="&#xe602;" d="M310.577 406.029c0.077-0.048 0.346-0.202 0.423-0.25l2.346-1.155c0.384-0.24 1.192-0.365 1.577-0.279l1.039-1.731c0.577-0.75 0.577-0.75 5.712-2.49l0.192-0.019c0.039 0 0.077 0 0.135 0 0.154 0 0.346 0.019 0.5 0.039 0.538 0.096 1 0.442 1.269 0.961 0.269 0.548 0.384 0.885 0.154 1.432h1.616c0.077 0 0.154 0.009 0.231 0.009 0.692 0.096 1.384 0.673 1.596 1.347 0.25 0.74-0.135 1.845-0.731 2.365-0.231 0.163-0.288 0.22-2.212 1.202 0.269 0.779-0.096 1.384-1.384 3.635-0.077 0.096-0.212 0.231-0.327 0.346-0.558 0.538-0.712 0.587-3.135 1.375-0.135 0.048-0.308 0.067-0.462 0.077-0.154-0.019-0.538 0-0.692-0.029l-2.365-0.51c-0.212-0.048-0.442-0.163-0.635-0.288l-0.846-0.49c-0.096 0.057-0.192 0.106-0.308 0.144-0.231 0.067-0.769 0.183-1.039 0.124-0.519-0.067-0.904-0.298-1.192-0.558h-2.616c-0.692 0-1.423-0.471-1.731-1.096-0.115-0.25-0.192-0.548-0.192-0.845 0-1.231 0.346-1.471 3.077-3.317zM274.885 373.144c0.5-1.048 0.5-1.048 9.327-3.788 0.173-0.067 0.346-0.096 0.519-0.096h0.154c0.616 0 0.616 0 10.115 4.327 1.077 0.788 1.039 1.808 0.904 2.5-0.135 0.529-0.308 1.048-0.558 1.808-0.096 0.26-0.231 0.519-0.423 0.721-0.039 0.048-0.346 0.375-0.423 0.442l-3.846 3.115c-0.308 0.269-1.019 0.51-1.923 0.558l-7.077-1.308-1.577 1.019c-0.231 0.125-0.827 0.279-1.077 0.279-0.558 0-1.192-0.154-4.943-0.943-0.788-0.26-1.327-0.846-1.519-1.587-0.173-0.664 0.135-1.74 0.616-2.202 0.654-0.635 1.481-1.183 2.269-1.664l-0.616-1.452c-0.154-0.481-0.154-1.288 0.077-1.731zM419.827 114.846l-7.212-9.115-3.692-2.346-0.135 0.192-5.231-7.308-2.846-4.885-4.731-4.308c-0.077-0.135-0.404-0.635-5.865-9-0.135-0.269-0.173-0.943-0.231-1.808l3.616 1.616c-0.057 0 1.25 1.077 5.635 6.096l1.231 1.404 1.827-1.327 0.327 0.365c0.692 0.846 1.346 1.712 1.961 2.616l0.769 1.077c0.039 0.057 0.25 0.346 0.192 0.462l-1.404 1.269 1.212 1.404c1.192 1.442 2.481 3.057 3.904 4.827l3.25 4.077-0.173 0.115c0.346 0.519 0.673 1.039 1 1.577l0.442 0.712 0.961 0.384 0.961 1.173 5.558 10.212c0.077 0.173 0.077 0.173 0.346 1.827l-0.25 0.616c-0.096-0.231-0.442-0.654-1.423-1.923zM96.981 240.5c-0.299-0.529-0.692-1.375-1.048-2.144l-1-2.192-2.144 0.971c-1.885 1.375-3.933 2.827-6 4.298l-0.404 0.288c-2.808 1.981-5.587 3.961-7.933 5.75 0.076-0.077-0.212-0.009-0.347 0.009l-4.943-1.144c-0.49-0.327-1.394-2.462-2.558-5.163l-0.384-0.893 0.192-0.144 1.701-0.817-0.865-2.712c0-0.067 0-0.087 0.288-1.933l3.279 1.845 0.076-3.893c-0.144-1.519 0.375-2.981 1.327-3.721 0.327-0.231 0.76-0.375 1.192-0.375 1.413 0 2.692 1.51 2.913 3.432 0.067 0.683 0 1.394-0.212 2.057l-2.269 7.288 7.067-6.769-0.124-3.577c0.019-0.115 0.163-0.25 0.356-0.346l10.26 5.788 3.203 0.048c0.288 0.029 0.423 0.317 0.442 0.365 0.009 0.548-0.481 1.808-1.288 3.904-0.394 0.135-0.568 0.115-0.779-0.22zM256 477.009c-139.5 0-253-113.5-253-253 0-139.509 113.501-253.009 253-253.009s253 113.5 253 253.009c0 139.501-113.5 253-253 253zM435.538 227.462c1.019-2.365 1.981-4.692 2.788-6.75l0.135-0.365-0.269-12.991-3.577 7.125-0.943 0.481-0.327 1.077-0.923 7.991-0.616 2.22 3.731 1.212zM256 3c-121.856 0-221 99.135-221 221.009 0 17.547 2.269 34.529 6.154 50.904 0.453-0.155 0.932-0.231 1.423-0.288-2.904-12.933-2.423-25.336-4.020-38.432 1.356-4.933 2.596-9.913 4.26-14.75l4.519-4.894 4.029 2.394c2.039-6.009 4.384-11.384 10.443-14.212 1.231-4.923 2.924-9.75 4.471-14.577l1.048-1.231 0.221 0.269 1.375 0.616c0.74-1.096 2.327-3.808 3.597-4.346l0.701-0.212c1.144-1.25 2.172-2.673 3.028-4.154l2.172 1.173 1.558 3.384c4.375-6.115 4.251-14.154 5.644-21.269-0.972-4.961-2.365-9.808-3.115-14.808 0.51-2.019 1.067-4.039 1.653-6.057l1.712-1.558-0.769-1.885c1.471-0.731 2.981-7 3.712-8.635 9.797-8.865 15.192-22.442 25.442-30.519 30.384-16.885 38.933-55.885 70.375-72.808l1.298-1.961c2.548-1.943 5.327-3.538 8.298-4.769 0 0 0.384-1.077 0.452-1.154 4.893-2.885 10.519-5.077 16.212-5.288l-5.577 3.5c-1.057 1.885-2.327 3.616-3.798 5.173l-3.49 1.192v1.384c-1.75 2.115-3.346 4.115-4.961 6.269l-2.384 1.346 1.365 1.808c-0.51 0.5-0.893 1.327-1.288 1.923l3.78 2.827-0.587 4.135c-1.067 1.135-2.904 1.961-4.24 2.692l4.327 1.769 1.173 3.654c1.288 1.692 2.577 3.384 3.845 5.077l-2.019 3.384 0.558 0.616-2.568 11.904c4.057 2.346 9.048 5.173 12.893 7.288 0.625 5.384 1.471 10.731 2.317 16.077l-2.596 11.923 1.856 2.538 2.49 1.154 6.683 12.712-0.019-0.019c-0.115 0-1.692 9.577-1.885 10.616-4.991 2.616-11.769 6.135-17.221 8.885-11.798 1.654-17.5 5.654-27.952 9.616l0.827 1.846 1.837 1.462-1.769-0.846c-0.077 0.154-0.155 0.308-0.231 0.462l-0.732-0.115c-4.856 3.5-7.625 8.384-10.885 13.25-4.202 1.981-8.22 3.596-7.595 10l-13.462-1.827-4.202 9.692c-5.692 2.788-11.096 6.154-17.51 6.885-0.769-0.25-1.538-0.654-2.203-1.115l-8.251 2.154-5.009 6-2.057-2.269c-1.288 0.692-2.616 1.365-3.846 2.154-7.317-4.269-8.481-5.654-11.547-13.558l-4.394 3.192-0.327 1.981v-1.961l-0.048 1.961 0.009-1.961-6.288-1.077-2.616 4.961c0.183 5.846 0.568 11.74 0.568 17.596-0.347 0.606-2.577 4.096-3.961 5.163l-5.654 1.202c-0.797 7.24 3.048 14.039 5.491 20.625l-0.308 0.298-8.076-1.115-2.009-8.192-5.587-1.077-2.932 8.606c2.462 13.558 5.557 22.106 13.24 33.865h4.644l4.519-4.519c0.933 0.827 1.721 3.961 2.067 5.51l8.413-3.019-0.664-16.413c1.009-0.51 1.692-0.51 2.347-0.51l2.538 2.596c3.124 9.057 3.644 16.587 8.394 25.096h1.154c4.876 3.096 9.51 6.538 14.231 9.865 1.828 2.558 1.76 6.731 2.577 9.904 0.981-0.683 2.009-1.365 2.904-2.154 3.163 3.471 6.558 6.712 8.98 10.75l9.135 0.991 2.173 2.568-0.558 1.404 2.75 4.009h2.712l9.961 4.981-1.346-5.616 0.471-0.577c4.144 2.057 8.732 3.702 13.057 5.375 0.452 0.548 0.76 1.192 0.913 1.894l3.356-0.144c0.346 0.087 1.25 0.769 2.298 1.558 0.029 0.268-0.019 0.394-0.288 0.712l-0.654 0.74 0.76 3.529c-0.009-0.009-0.009-0.009-0.009-0.009-0.029 0-0.077 0.183-0.125 0.279 0 0-0.135 0.029-0.606 0.067-1.875-2.471-4.173-4.654-6.268-6.952l-3.423 4.048 1.115 4.664h1.577l2.413 2.5-0.067 0.51-2.961 3.288c6.933 0.519 13.904 0.279 20.846 0.288l-7.462-3.74 0.683-1.029-1.616-3.163c0 0.009 0.009 0.009 0.009 0.009 0.029 0 0.009-0.24 0.029-0.336 1.577-0.856 3.952-0.865 5.712-1.135l0.845-2.107c-0.029 0.107 1.856 0.155 1.961 0.144l1.22 1.029c0.481-0.432 1.202-0.991 1.865-1.096l1.25 0.029c0.442 0.163 1.587 1 3.471 2.384 0.115 0.596 0.173 0.981 0.24 1.587l-1.587 1.019 1.183 2.596c-0.577 0.875-2.827 1.606-3.74 2l5.183 4.432c0.115 0.106 0.135 0.308 0.087 0.432l-2.087 0.961c0.856 1.673 1.837 3.279 2.933 4.808l-6.405 1.692 1.721 2.346c0.375 1.346 0.76 2.692 1.144 4.039l-1.865 1.183c1.144 3.808 1.529 7.702 2.356 11.587l-0.442 0.308c-2.384-1.356-4.76-2.702-7.144-4.057l-3.067 2.683 2.798 2.924-4.163 4.76c-0.462 0.231-0.933 0.462-1.394 0.692h0.009l-0.048 0.019 1.845 3.481c0.837-0.452 3.971 0.471 4.981 0.673l3-1.943c-0.346-0.423-1.76-1.904-1.76-2.471 1.009-0.183 5.279-3.568 5.125-3.453l0.336 0.125c1.029 1.029 1.673 2.856 2.346 4.154l1.732-0.913 1.413-0.077c2.067 1.009 3.664 3.654 5.183 5.404l1.365-0.779c2.49 0.039 5.568 2.635 7.558 3.885l0.231 0.442c-1.49 1.865-2.943 3.769-4.413 5.664l2.913 3.558c-0.22 0.115-1.442 1.972-3.298 4.769l-3.817 1.173c2.135 1.538 4.057 3.298 5.788 5.269l1.625 0.115c1.643 0.5 4.231 2.432 5.923 3.596 1.423 0.009 2.845 0.26 4.202 0.75l2.885 4.875 0.712-5.375 0.981-0.24c-0.394-1.028-0.788-2.076-1.057-3.144l0.423-1.462c0 0.057 0.135-0.067 0.268-0.163 2.5 0.221 4.981 0.057 7.423-0.5l1.039-2.779-1.673-4.644c0.019 0 0.019 0 0.019 0 0.039 0 0.057-0.269 0.057-0.423l0.904-0.924-0.519-1.019 0.904-1.731 3.635-3.404h-7.577c-0.212-0.144-1.442-1.25-3.5-3.067-0.336-1.317-0.595-2.692-0.769-4.048l0.692-0.779-0.057-2.731-2.115-0.519 1.788-8.654c0.231-0.173 0.365-0.25 0.462-0.298l2.904 0.067 1.712-3.144c0.135-0.077 0.308-0.154 0.442-0.154l3.788 0.885c5.625 5.933 9.943 12.279 18.039 14.721l1.885-0.635c2.885 0.865 6.596 4.442 9.346 5.904l3.692-0.731c4.115 1.49 8.308 3.144 12.269 4.952l0.596-0.019c0.462 1.327 1.039 2.519 1.616 3.817l-1.519 1.701 1.961 1.357 0.827 6.076-0.269 0.712 0.269 0.749c-0.846 1.846-1.731 3.692-2.616 5.519l2.019 0.76 0.827 1.096 2.039-0.577 1.423 1.25c-1.558 1.057-3.25 1.769-5.077 2.115l0.384 1.298-0.077 0.606-0.365-1.933c-0.981-0.039-2.212-0.635-3.115-1.019l-0.577 2.067c-6.788 6.481-14.731 5.875-23.923 4.24-0.673 0.115-1.336 0.26-2 0.432-2.356-0.635-5.875-3.798-8.173-5.568l-1.5 1.943c-1.654-0.115-2.732 0.076-3.808 1.413-0.442 1.22-1.173 2.268-2.173 3.135-2.596 0-5.192-0.423-7.827-0.269l3.904 2.933c-0.135 0.384-0.462 0.712-1.308 0.952-1.173 0.163-2.336-0.087-3.173-0.875l-0.057-0.769c-1.558-1.019-5.769-4.732-7.268-4.732l-0.616 0.057c-0.856-0.163-1.22-0.5-1.279-0.865l-0.115-0.606c-0.673-0.625-1.22-1.356-1.635-2.192l-0.173-0.943c-1.643-0.913-3.24-1.923-4.769-3.019l-0.375 5.78c-0.519-2-5.845-5.279-7.268-6.894l0.212-0.837-0.732-1.923-2.155-0.76-0.837 1.26c-0.212 0.423-4.471 0.913-5.019 1.039 1.721 1.375 3.057 3.076 3.952 5.076-0.107-0.048-1.163-0.616-2.49-1.596l-2.442-4.365-1.75 1.106-3.125 0.279 1.875 2.616c0 0.288-0.635 0.797-0.933 1.039-0.577-0.538-1.231-0.943-1.952-1.231l-0.845 0.375c-0.432 0.154-0.76-0.029-0.904-0.144-1.067-1.115-2.125-2.24-3.155-3.394l-1.048 3.192c-3.481-0.048-6.769-0.856-9.845-2.442-0.798-0.365-1.268-1.452-1.49-2.26l-1.144-0.654c-3.837 0.702-14.828-1.943-16.019-6.106l1.692-1.462-1.616-1.529-2.115-4.087-2.009 5.49-0.961 0.365-0.163 0.913-0.405-0.413-0.817-0.279-1.173 0.635c-1.115 0.74-5.75-1.009-7.192-1.269 0.423 2.019 0.808 4.299 1.558 6.212-8.893-0.683-17.039-6.442-24.24-13.019-0.057 0.067-0.154 0.096-0.221 0.154 38.49 32.51 88.135 52.203 142.336 52.203 71.731 0 135.404-34.51 175.808-87.635-9.538 10.981-18.692 20.413-25.231 26.893-5.827 5.616-18.5 10.76-29.692 15.299-8.269 3.356-16.077 6.529-21.115 9.769l-0.616 0.394 0.077-0.192 0.885-0.721c1.577-1.25 3.5-2.846 5.077-4.308l2-1.49-2-1.519 0.769-0.529 7.788-7.365-10.673 4.442-4.596 3.481-0.462 0.76c-0.154 0.288-1.384 1.865-2.384 3.125l-0.654 0.808 0.308 0.981c0.096 0.154-0.077 0.394-0.173 0.481-0.288 0.26-0.308 0.279-3.731 1.885l-0.673-0.76-0.769 0.106c1.057-1.279 2.288-2.384 3.462-3.452l0.423-0.394c0.462-0.423 0.923-0.846 1.327-1.269 0.269-0.298 0.288-0.317 0.558-0.423l1.077-0.423 0.154-1.135c0.077-0.481 0.577-1.067 0.923-1.49 0.423-0.529 0.577-0.74 0.788-1.048 0.346-0.327 2.5-1.5 7.212-4.077l1.616 0.885 0.943-0.644c0.115-0.087 0.269-0.183 0.5-0.317l2.173-1.221-1.692-1.827 0.096-0.625 0.308-3.702-6.692 3.779 0.135-3.308-2.654 1.568c-0.712 0.356-1.442 0.673-2.154 0.981-1.192 0.538-1.981 0.904-2.808 1.327l-3.981 0.731-0.769-0.442-0.943 0.154-2.212 0.702-2.904 1.635-3.538 0.664-2.596 0.029-0.731-2.077-2.827-0.904-0.135-0.481-2.096-3.49 0.154-1.643-0.692-7.587 0.212-1.299-1.077-0.788-3.788-4.933 5.404-8.308 0.943-2.192c0.788-0.673 2.212-0.913 3.462-1.115l2.327-0.384v-1.885l-0.346-3.115 1.943-2.538 0.885-1.952-1.846-1.221-2.788-0.991-1.961-2.596-0.885-0.067-1.192-1.413-0.538-1.375-6.154-14.442 2.673 17.25c-0.308 0.606-3.616 3.779-9.616 9.547l-0.558 0.549-0.635 4.519c-0.192 0.144-1.596 0.837-2.731 1.384l-0.692 0.347-0.692 1.797c-0.077 0.096-0.135 0.163-0.635 0.203l-2.25-0.029c-0.308-0.875-0.769-3.24-1.346-6.375 0.115-0.49 0.25-0.731 0.384-0.981l1.654-2.933-5-0.202-1.231-0.587c-0.135-0.067-0.308-0.135-0.577-0.279l-0.981-0.732h-0.577c-0.25-0.096-0.846-0.731-1.404-1.356 0.173 0.144 0.096-0.087 0.115-0.202l0.481-2.029v0.009c0.019 0 0.135-0.096 0.404-0.308l1.616-1.25-1.308-1.568-0.635-3.375c0.192-0.231 0.423-0.413 0.692-0.413l4.846 1.057 4.135 1.981 2.692 2.183 1.135-5.221-1.616-1.452-1-2.635c0.327-0.404 0.692-0.471 0.904-0.49l1.404 0.009 3.616 1.202-1.577-3.712-0.673-2.231 0.481-2.481c-0.019 0.279 0.308-0.221 0.462-0.375 0.943-0.009 1.827-0.019 2.692-0.019h0.75l4.788-4.288-0.404-2.587 0.462-2.279 0.616-2.865-2.885 0.529c-1.654 0.298-2.096 0.375-8.327 1.231-0.961 0.173-1.442 0.268-3.442 0.654l-0.558-0.212-0.577-1.298-1.135-0.596-1.231-0.26c0.057-0.048-0.135-0.308-0.288-0.5l0.308-2.365c0.25-1.894 0.538-3.943 0.769-5.664l0.039-0.308-0.077-0.308-1.365-6.961 0.173-1.039 1.558-1.779 1.692-4.837c0.039-0.125 0.346-0.317 0.692-0.317l4.327 0.933 3.462-4.039-12.442-11.413-1.904-8.462-8.269-6.212-3.961-1.74c-1.442-3.394-3.788-7.481-5.865-11.087-1.039-1.808-1.885-3.308-2.788-4.961l-4.154-9.519c0.077-1.107 0.077-1.683 0.077-2.327l1.538-2.943 1.346-9.731-5.673-11.683 2.75-2.894-0.057-5.51 1.673-2.865 2.462-3.019 5.654-8.442 3.423-2.769 4.712-5.308 8.25-4.923 2.865-2.577c1.019 0.039 2.039 0.481 2.923 0.923l0.519 0.154 5.865 1 9.442 0.039 8.654 1 0.269-0.077 0.981 0.231 3.712 2.192 4.057 0.039 3.616 0.904 2.5-7.25 7.212 0.692 3.384-5.077 0.654-1.808-3.115-6.923c-0.865 0.712-1.731 1.423-3.019 1.423-0.077 0-0.404 0-0.481 0-2.577-0.384-4.616-2.154-5.154-4.538-0.423-1.961 0.269-3.865 1.808-4.961 0.846-0.616 1.827-0.923 2.885-0.923 1.154 0 2.212 0.481 3.154 1.096l3.885-10.538 0.519-3.346-1.769-0.961 2.039 0.135c0.115-0.327 0.25-0.692 0.346-1.212l0.404-1.808-1.154-3.904-2.346-13.346-3.885-3.673-2.212-5.519-1.885-0.769c0.039 0-0.25-0.231-0.346-0.288l-2.654-6.788 1.212-5.577-0.115-0.462c-2.057-8.077-4.577-16.635-6.558-22.346l-0.269-1.577-1.673-4.731c-0.808-1.75-1.077-2.327-2.404-4.943l-0.365-0.5-1.769-1.75c-0.692-0.865-1.442-2.365-2.115-3.692l-0.788-1.538c0.654-0.231 1.231-0.231 1.885-0.231 0.577 0.231 1.192 0.596 1.769 0.923l1.135 0.538c3.308 0.692 6.885 1.423 10 2.154l5.558 2.731 9.5 6.846 1.596-1.269-1.135 1.616c1.077 0.75 3.442 2.462 4.077 3.039l6.616 7.25 2.173 1.558h1.616c0.519 0.269 1.154 0.885 1.712 1.462l5.577 5.961 4.577 8.635h1.096c0.865 0.288 1.538 1.077 1.961 1.558l1.346 1.192c2.558 1.943 5.096 3.961 6.846 5.346l1.039 0.846h0.692l6.154 3.077-0.154 0.269-2.173 1.308 1.442-0.692-1.365 0.808 4.885 8.173 1.692-0.981c0.154-0.096 0.462-0.154 0.692-0.192l2.596 1.943 0.384 1.596c-0.25 0.269-0.673 0.288-1.039 0.288h-3.75l1.039 2.865c0.154 0.308 0.308 0.616 0.442 0.943 0.327 0.673 0.616 1.288 0.865 1.904l0.616 1.308 0.115 1.577 2.731 7.846 0.616 2.712 2.346 4.057 1.212 1.346c0.692 1.808 1.115 3.077 1.404 4.039l0.192 0.462 4.019 6.423 0.5 0.231 6.808 10.827 2.096 1.019 4.096 9.192c1.961 4.384 3.865 9.558 4.039 10.231l1.154 5.308c0.846 4 1.731 8.154 2.212 11.365l-0.231 2.481-2.308-2.057c-1.135-0.865-1.961-1.481-2.769-2.057l-2-1.462-0.961 2.308-0.654 0.654 0.135 2.192-0.231 1.769 1.712 0.384 5.519 4.635 3.846 7.173c0.057 0.606 0.096 1.106 0.135 1.519l0.077 0.971 0.846 0.808 1.827 5.135 0.212 2.413c0.442 4.568 0.943 9.732 1.057 14.135l-3.039 11.845 1.846 0.529c0.288 0.173 0.654 0.268 1.019 0.268 1.135 0 1.712-0.769 2.5-1.827 1.154-1.529 3.269-4.365 5.808-4.365 1.057 0 2.192 0.49 3.384 1.462 3.519 2.856 6.212 6.155 8.135 9.865 1.846-11.49 3.077-23.202 3.077-35.212 0-121.875-99.135-221.009-221-221.009zM164.943 378.721l2.019 0.76 3.808-1.048-2.009-2.462c-3.808-3.971-4.606-7.135-9.845-8.856l-4.452-7.548-9.135-3.308c-0.904-1.432-1.74-2.904-2.519-4.404l-1.538 3.865 0.029 0.019c-1.971 2.702-3.26 5.692-3.865 8.981l-3.135 1.221 2.721 2.029 0.22 1.827c5.394 4.913 11.865 7.25 18.51 9.943 0.26 0.269 0.432 0.423 0.568 0.529l0.327 1.568 6.732-0.096-0.375-2.808c0.76-0.212 1.336-0.212 1.943-0.212zM170.75 378.894c0.635 2.308 0.78 4.74 0.384 7.067l8.405 1.712 6.336 6.048c2.24-0.808 4.481-1.577 6.74-2.327l-4.971-4.481-1.961-2.596-4.893-0.039c-2.606-1.808-4.673-4.347-5.971-7.288-1.26 0.827-2.625 1.471-4.067 1.904zM362.692 289.529l0.019 0.009-0.635 3.394-1.423 1.173-2.981 1.654-3.5-1.087-16.423-1.048-11.442-4.24h-7.769l2.712 3.837 1.077 0.519 3.943 0.616 4.288 3.971c0.616 0.721 1.135 1.317 1.692 1.856l-1.654 5.077 0.769 2.394 6 2.375 0.75 4.413 0.635 1.298 6.481-0.971 2.635 2.039h5.519l-3.346-3.904c0 0 0 0.009 0.019 0.009 0 0 0-0.25 0.077-0.74 0.135-0.548 0.288-1.25 0.423-1.923l0.788-0.817-0.135-1.365c0-0.048-0.039-0.202 0.019-0.577l1-4.587c0.057-0.288 0.154-0.384 0.635-0.5l2.981 1.471c-0.057 0.308-0.308 1.048-1.173 3.904-0.039 0.115-0.115 0.268-0.423 0.404l-1.692 0.702 0.577 1.74c0.135 0.423 0.288 0.933 0.442 1.538l0.327 0.817 1.346 2.029 4.904-5.057 8.135-4.943 2.115-5.327-7.808 1.346c0.173-0.039-0.212-0.183-0.365-0.26 0.057-0.5 0.135-0.923 0.288-1.721 1.096-1.423 3.019-2.673 4.577-3.673l3.865-2.519 0.019 0.009c0.077 0.029 0.154 0.212 0.173 0.471v4.577l1.404 0.423 1.577 3.568-1.769 3.721h3.096l1.904 1.548 2.154-3.568 0.885-0.096 2.673-3.875 1.077-0.24 0.865-1.107 2.019-3.817 0.596-0.384 1.904 0.048 2.365 2.279c-0.057 0.721-0.154 1.192-0.25 1.692l-0.346 0.548 3.077 2.452 0.423-0.481c0.577-0.635 0.885-1.009 1.039-1.155l0.481-0.644 1.904-4.077-0.115 1.74 4.327-4.394 3.327 1.019 0.981 0.845 1.057-0.683 2.192-1.096-1.288-2.039c-0.115-0.26-0.019-0.616 0.25-0.875 0.154-0.106 0.673-0.404 2.538-1.519l1.039 1.202 2.5 3.288 0.981-4.009c0.192-0.76 0.404-1.529 0.616-2.288l0.077-0.298-0.481-10.384-7.096 2.279-1.865-3.279-8.192 3.298c-1.077-0.029-2.039-0.048-2.885-0.048h-1.135l-1.096 1.904c-2 0.25-3.5 0.25-5.231 0.25l-1.885-1.183-1.019-6.077-10.231 6.135c-0.231 0.067-0.462 0.163-0.519 0.192l-8.923 2.317-0.269-8.798-1.75 9.538-2.077 0.769 1.154 2.019c-0.057 1.845-0.288 3.481-0.519 4.952zM348.904 360.769l0.865 2.029 0.808 3.991v3.057l5.923-2.577 1.865 0.471 0.384-1.827c0.25-0.913 0.577-1.49 1-2.231l1.635-1.125-0.423-1.413 2.519-7.423-3.616 1.019c-0.692 0.192-1.904 0.067-3.558-0.384-0.404-0.125-0.865-0.24-1.288-0.327l-4.538-1.808-0.692-0.606-1.712 0.356-7.115 1.24 6.769 2.548c0.327 0.115 0.596 0.22 0.846 0.298l0.635 0.202-0.308 4.51zM392.077 319.067l0.5 0.625c0.154 0.365 0.192 0.519 0.192 0.961l0.596 8.933 3.212-5.356c1.981-1.904 3.192-3.048 3.519-3.231l0.961 1.587 1.462 2 1.616-1.856 11.961-9.202-7.808-1.221-0.654 0.471c-0.923 0.683-1.981 1.442-2.25 1.558-0.961-0.442-2.057-0.875-3.192-1.317l-4.462-1.74-2.404 0.144-3.039 3.683-0.288 0.712 0.154 1c0.057 0.163 0.096 0.356 0.115 0.568l-0.192 1.683z" />
<glyph unicode="&#xe603;" d="M472.981 119.633h-354.284v128.637c-11.034-9.272-24.591-15.568-39.466-17.897v-241.545c0-10.909 8.841-19.716 19.739-19.716h393.75c10.875 0 19.704 8.818 19.704 19.716v241.683c-14.92 2.523-28.466 9.113-39.455 18.613v-129.488h0.012zM504.344 434.861c2.807 0 5.512-0.591 8.080-1.534v22.182c0 10.887-8.841 19.738-19.704 19.738h-393.738c-10.909 0-19.739-8.853-19.739-19.738v-22.444c2.841 1.159 5.887 1.807 9.034 1.807l416.067-0.012zM504.344 411.201h-416.067l-79.023-84.853c0-31.704 25.704-57.421 57.421-57.421 6.545 0 12.852 1.171 18.728 3.193 0.239 0.080 0.478 0.182 0.716 0.25 1.807 0.66 3.534 1.375 5.261 2.193 0.239 0.113 0.478 0.239 0.728 0.352 1.784 0.897 3.534 1.852 5.216 2.933 0.069 0.045 0.171 0.103 0.239 0.147 7.296 4.66 13.455 10.943 18 18.34 0.023 0.046 0.057 0.091 0.091 0.159 1.124 1.83 2.147 3.739 3.046 5.692h0.011c3.421 7.341 5.386 15.5 5.386 24.113 0-31.692 25.704-57.409 57.409-57.409s57.398 25.716 57.398 57.409c0-31.692 25.704-57.409 57.432-57.409 31.704 0 57.409 25.716 57.409 57.409 0-31.692 25.704-57.409 57.443-57.409 31.683 0 57.387 25.716 57.387 57.409 0-10.136 2.659-19.648 7.272-27.92 0.228-0.375 0.455-0.728 0.683-1.103 0.864-1.432 1.75-2.864 2.728-4.216 0.296-0.443 0.659-0.875 0.977-1.317 0.988-1.296 2.023-2.545 3.113-3.773 0.296-0.34 0.625-0.683 0.933-1.034 1.352-1.421 2.75-2.761 4.228-4.046 0.068-0.069 0.159-0.147 0.239-0.193 5.023-4.317 10.818-7.716 17.136-10.091 0.068-0.023 0.125-0.034 0.182-0.068 2.103-0.773 4.228-1.421 6.432-1.954h0.011c4.341-1.057 8.864-1.683 13.488-1.683 31.704 0 57.443 25.716 57.443 57.409l-79.091 84.887z" horiz-adv-x="593" />
<glyph unicode="&#xe604;" d="M368 480h-224c-26.4 0-48-21.6-48-48v-416c0-26.4 21.6-48 48-48h224c26.4 0 48 21.6 48 48v416c0 26.4-21.6 48-48 48zM192 456h128v-16h-128v16zM256 0c-17.673 0-32 14.327-32 32s14.327 32 32 32 32-14.327 32-32-14.327-32-32-32zM384 96h-256v320h256v-320z" />
<glyph unicode="&#xe605;" d="M287.935-32h-95.935v256h-64v88.225l64 0.029-0.104 51.976c0 71.976 19.517 115.77 104.299 115.77h70.588v-88.243h-44.115c-33.016 0-34.603-12.328-34.603-35.341l-0.132-44.162h79.345l-9.352-88.225-69.927-0.029-0.065-256z" />
<glyph unicode="&#xe606;" d="M512 382.791c-18.837-8.354-39.082-14.001-60.331-16.541 21.685 13 38.343 33.585 46.187 58.115-20.298-12.039-42.779-20.781-66.705-25.49-19.16 20.415-46.461 33.171-76.673 33.171-58.012 0-105.043-47.029-105.043-105.039 0-8.233 0.929-16.25 2.72-23.939-87.3 4.381-164.701 46.2-216.508 109.753-9.043-15.514-14.223-33.558-14.223-52.809 0-36.444 18.544-68.596 46.73-87.433-17.219 0.547-33.416 5.271-47.577 13.139-0.011-0.438-0.011-0.877-0.011-1.321 0-50.893 36.209-93.348 84.261-103-8.813-2.4-18.094-3.685-27.674-3.685-6.769 0-13.349 0.661-19.764 1.885 13.368-41.731 52.16-72.103 98.125-72.947-35.95-28.175-81.243-44.967-130.458-44.967-8.479 0-16.84 0.497-25.058 1.469 46.486-29.805 101.701-47.197 161.020-47.197 193.212 0 298.868 160.062 298.868 298.872 0 4.555-0.103 9.084-0.305 13.589 20.528 14.81 38.336 33.31 52.418 54.374z" />
<glyph unicode="&#xe607;" d="M64 224.005c0-74.012 44.161-137.984 108.215-168.289l-91.588 244.392c-10.653-23.253-16.627-48.991-16.627-76.103zM385.613 233.436c0 23.117-8.527 39.117-15.827 51.571-9.729 15.411-18.86 28.447-18.86 43.858 0 17.188 13.383 33.188 32.243 33.188 0.851 0 1.659-0.101 2.488-0.151-34.157 30.484-79.67 49.099-129.654 49.099-67.080 0-126.093-33.524-160.422-84.285 4.505-0.14 8.753-0.227 12.356-0.227 20.076 0 51.17 2.376 51.17 2.376 10.345 0.591 11.566-14.217 1.228-15.411 0 0-10.405-1.184-21.976-1.775l69.917-202.553 42.022 122.728-29.911 79.825c-10.344 0.592-20.139 1.775-20.139 1.775-10.351 0.595-9.136 16.001 1.22 15.411 0 0 31.701-2.376 50.567-2.376 20.073 0 51.175 2.376 51.175 2.376 10.351 0.591 11.57-14.217 1.223-15.411 0 0-10.417-1.187-21.974-1.775l69.389-201.009 19.156 62.315c8.291 25.875 14.608 44.45 14.608 60.451zM259.372 207.648l-57.613-163.029c17.208-4.929 35.397-7.62 54.243-7.62 22.358 0 43.803 3.759 63.759 10.6-0.509 0.801-0.988 1.652-1.375 2.577l-59.015 157.471zM424.481 313.714c0.827-5.955 1.293-12.343 1.293-19.228 0-18.964-3.646-40.298-14.601-66.975l-58.644-165.136c57.081 32.413 95.469 92.644 95.469 161.629 0 32.516-8.531 63.080-23.519 89.711zM256 480c-141.385 0-256-114.615-256-256s114.615-256 256-256 256 114.615 256 256-114.615 256-256 256zM256 0c-123.712 0-224 100.288-224 224s100.288 224 224 224 224-100.288 224-224-100.288-224-224-224z" />
<glyph unicode="&#xe608;" d="M133.002 341.661c16.416 16.421 43.001 16.421 59.403 0.016l3.913-3.934 50.552 50.579-3.937 3.939c-28.811 28.851-69.257 38.94-106.21 30.261-5.297 32.591-33.544 57.462-67.588 57.477-37.825 0-68.477-30.721-68.484-68.579 0-32.668 22.796-60 53.331-66.915-11.569-38.725-2.121-82.417 28.423-112.992l113.913-113.95 50.499 50.607-113.905 113.943c-16.34 16.361-16.371 43.063 0.093 59.548zM511.356 411.421c0.008 37.881-30.659 68.579-68.493 68.579-34.617 0-63.239-25.723-67.841-59.119-38.537 11.333-81.892 1.749-112.32-28.704l-113.92-113.95 50.551-50.586 113.884 113.928c16.469 16.484 42.995 16.453 59.341 0.093 16.4-16.415 16.4-43.057-0.016-59.478l-3.897-3.917 50.505-50.624 3.929 3.964c30.228 30.283 39.839 73.379 28.805 111.82 33.575 4.417 59.469 33.181 59.469 67.996zM453.132 104.469c9.051 37.228-0.988 78.162-30.053 107.25l-113.745 113.995-50.551-50.561 113.76-114.006c16.469-16.498 16.432-43.048 0.092-59.424-16.401-16.407-43.002-16.407-59.418 0.015l-3.884 3.895-50.497-50.623 3.866-3.864c30.757-30.796 74.809-40.219 113.685-28.243 6.315-31.341 33.967-54.901 67.129-54.901 37.803 0 68.483 30.675 68.483 68.564 0 34.6-25.589 63.228-58.868 67.905zM306.173 215.659l-113.768-113.995c-16.356-16.384-43.017-16.413-59.472 0.062-16.409 16.452-16.416 43.049-0.022 59.485l3.904 3.887-50.543 50.563-3.868-3.856c-29.38-29.401-39.28-70.916-29.724-108.492-30.199-7.13-52.679-34.317-52.679-66.749-0.008-37.873 30.666-68.563 68.492-68.563 32.549 0.016 59.794 22.709 66.77 53.191 37.351-9.276 78.5 0.652 107.672 29.877l113.745 113.981-50.507 50.609z" />
<glyph unicode="&#xe609;" d="M416.906 410.072c-1.812 6.794-8.979 10.949-15.813 9.118l-380.652-102.026c-6.833-1.811-10.969-9-9.137-15.774l52.933-197.474v193.969c0 7.917 6.558 14.513 14.493 14.513h364.347l-26.171 97.674zM487.601 296.448h-394.161c-7.385 0-13.528-6.144-13.528-13.529v-241.014c0-7.424 6.144-13.548 13.528-13.548h394.161c7.424 0 13.548 6.125 13.548 13.548v241.014c-0.019 7.385-6.125 13.529-13.548 13.529zM474.053 109.568c-29.775 0-54.115-24.339-54.115-54.134h-258.856c0 29.794-24.3 54.134-54.095 54.134v105.669c29.794 0 54.095 24.3 54.095 54.115h258.856c0-29.814 24.339-54.115 54.115-54.115v-105.669zM290.501 250.998c-44.367 0-67.624-49.467-67.624-87.946 0-38.459 23.256-87.946 67.624-87.946 44.426 0 67.683 49.487 67.683 87.946-0.019 38.479-23.257 87.946-67.683 87.946zM325.534 112.463h-65.635v17.349h20.973v52.5h-20.973v16.187c3.072 0 6.144 0.197 9.157 0.611 3.033 0.413 5.435 1.083 7.247 1.93 2.147 1.083 3.8 2.521 4.982 4.313s1.871 4.037 2.048 6.715h21.76v-82.255h20.461v-17.349z" />
<glyph unicode="&#xe60a;" d="M257.762 454.572c21.356-35.596-2.857-80.167-21-119.048-15.595-33.428-13.215-71.356 28.596-66.5 50.38 5.857 70.714 9.881 113.596 12.809 43.31 2.952 56.976-14.809 56.976-31.261 0-26.571-8.881-28.571-8.881-38.763s33.215-3.548 33.215-36.976c0-33.476-25.952-32.38-25.952-41.714 0-9.356 25.262-13.548 25.262-40.31s-34.048-30.31-34.048-41.356 11-13.928 11-30.5c0-16.548-34.548-52.952-156.452-52.952-207.738 0-183.095 49.762-280.072 49.762v183.857c50.475 0 47.739 44.666 82.572 78.785 35.143 34.405 102.356 112.31 115.572 173.715 8.833 41.095 46.429 22.428 59.619 0.452z" horiz-adv-x="463" />
<glyph unicode="&#xe60b;" d="M354.462 204.308c0-21.752-17.633-39.385-39.385-39.385s-39.385 17.633-39.385 39.385c0 21.751 17.633 39.385 39.385 39.385s39.385-17.633 39.385-39.385zM196.923 204.308c0-21.752-17.633-39.385-39.385-39.385s-39.385 17.633-39.385 39.385c0 21.751 17.633 39.385 39.385 39.385s39.385-17.633 39.385-39.385zM433.231 283.077h-3.151c0.079 137.768-91.885 196.923-193.773 196.923-109.903 0-211.495-68.234-192.709-230.715-14.671-13.47-23.907-35.544-23.907-61.519 0-36.864 35.309-68.49 62.661-78.513 9.63-31.823 29.834-60.2 58.998-82.589 3.584-2.757 7.798-4.077 11.973-4.077 5.928 0 11.756 2.659 15.636 7.7 6.637 8.625 5.002 20.992-3.624 27.608-25.698 19.731-41.709 43.894-47.616 71.798-1.792 8.488-10.437 14.868-19.082 15.616-8.842 0.768-39.562 22.351-39.562 42.457 0 21.681 10.181 36.234 19.692 36.234 10.437 0 19.062 8.153 19.653 18.57 0.709 12.584 2.501 25.659 5.671 38.498 27.018 9.157 49.743-5.731 73.137 63.252 30.957-91.451 123.037-31.665 191.763-65.398 2.541-11.245 4.47-23.158 5.199-36.333 0.571-10.417 9.216-18.589 19.653-18.589v-68.627c-7.286-6.065-14.927-10.142-19.692-10.142-9.315 0-17.329-6.498-19.279-15.616-3.958-18.688-12.642-35.919-25.797-51.24-7.070-8.251-6.144-20.677 2.107-27.766 8.231-7.070 20.677-6.144 27.766 2.107 14.454 16.817 24.891 35.544 31.094 55.769 10.063 3.19 20.224 9.295 29.48 17.034h3.091c-9.334-36.844-32.079-74.496-39.483-86.016-8.212-3.407-32.079-11.658-72.704-14.947-4.568 23.217-29.598 41-60.042 41-33.713 0-61.026-21.721-61.026-48.502s27.313-48.502 61.026-48.502c22.311 0 41.629 9.63 52.263 23.867 65.851 3.702 97.162 19.988 98.619 20.755 2.205 1.201 4.115 2.895 5.534 4.982 1.832 2.678 39.404 58.132 49.192 112.049 20.618 9 34.422 29.952 34.422 54.39v39.385c0.039 32.65-24.576 59.096-57.187 59.096z" horiz-adv-x="472" />
<glyph unicode="&#xe60c;" d="M337.408 263.334c0 9.997-8.281 18.291-18.291 18.291s-18.291-8.281-18.291-18.291v-36.57c0-70.579-57.434-128.013-128.013-128.013-70.592 0-128.013 57.433-128.013 128.013v36.569c0 9.997-8.282 18.291-18.291 18.291s-18.291-8.282-18.291-18.291v-36.569c0-84.57 64-154.304 146.304-163.456v-37.709h-73.139c-9.997 0-18.291-8.281-18.291-18.291s8.281-18.291 18.291-18.291h182.873c9.997 0 18.291 8.281 18.291 18.291s-8.281 18.291-18.279 18.291h-73.152v37.709c82.291 9.152 146.304 78.874 146.304 163.456v36.569zM264.269 373.069c0 50.291-41.152 91.443-91.443 91.443-50.304 0-91.443-41.152-91.443-91.443v-146.304c0-50.291 41.139-91.443 91.443-91.443 50.291 0 91.443 41.152 91.443 91.443v146.304z" horiz-adv-x="355" />
<glyph unicode="&#xe60d;" d="M611.178 428.31l-43.029 41.472c-95.232-76.8-221.206-198.166-221.206-328.747 0-101.376 56.853-162.837 130.582-162.837 69.12 0 104.448 49.173 104.448 102.954 0 66.048-56.832 95.21-56.832 162.794 0.021 69.141 35.35 129.066 86.038 184.362zM271.68 428.31l-42.987 41.472c-95.254-76.8-221.206-198.166-221.206-328.747 0-101.376 56.832-162.837 130.582-162.837 69.12 0 104.448 49.173 104.448 102.954 0 66.048-56.832 95.21-56.832 162.794-0.022 69.141 35.306 129.066 85.995 184.362z" horiz-adv-x="619" />
<glyph unicode="&#xe60e;" d="M281.033 224c0 4.087-2.048 8.677-5.111 11.731l-237.732 237.751c-3.063 3.063-7.662 5.102-11.739 5.102s-8.677-2.039-11.739-5.102l-7.223-7.223c-3.063-3.063-5.093-7.653-5.093-11.74s2.030-8.668 5.093-11.731l218.788-218.788-218.788-218.798c-3.063-3.053-5.101-7.644-5.101-11.731 0-4.589 2.039-8.668 5.101-11.731l7.223-7.223c3.063-3.063 7.652-5.101 11.73-5.101s8.676 2.039 11.739 5.101l237.751 237.742c3.063 3.072 5.101 7.661 5.101 11.74z" horiz-adv-x="284" />
<glyph unicode="&#xe60f;" d="M7.497 212.26l237.741-237.741c3.063-3.063 7.661-5.101 11.74-5.101s8.668 2.039 11.731 5.101l7.223 7.223c3.063 3.063 5.101 7.14 5.101 11.731 0 4.087-2.039 8.676-5.101 11.731l-218.78 218.798 218.789 218.788c3.063 3.063 5.101 7.661 5.101 11.731 0 4.087-2.039 8.676-5.101 11.739l-7.223 7.223c-3.063 3.054-7.652 5.101-11.731 5.101s-8.677-2.048-11.739-5.101l-237.751-237.751c-3.063-3.054-5.101-7.643-5.101-11.731 0-4.077 2.039-8.668 5.101-11.74z" horiz-adv-x="284" />
<glyph unicode="&#xe610;" d="M218.472 384.159v39.548h158.153v-39.534h-158.153zM574.326 186.458h-207.582v-49.429c0-10.808-8.953-19.774-19.774-19.774h-98.858c-10.808 0-19.774 8.953-19.774 19.774v49.429h-207.582v-148.273c0-27.192 22.237-49.429 49.429-49.429h454.712c27.178 0 49.415 22.238 49.415 49.429v148.273zM337.076 186.458h-79.083v-39.534h79.083v39.534zM574.326 334.731c0 27.192-22.237 49.429-49.415 49.429h-108.738v49.429c0 16.37-13.284 29.654-29.654 29.654h-177.941c-16.384 0-29.655-13.284-29.655-29.654v-49.429h-108.737c-27.192 0-49.429-22.237-49.429-49.429v-118.618h553.555v118.618z" horiz-adv-x="595" />
<glyph unicode="&#xe611;" d="M295.385 76.308c0-5.54-4.306-9.846-9.846-9.846h-59.077c-5.54 0-9.846 4.306-9.846 9.846v59.077c0 5.54 4.306 9.846 9.846 9.846h59.077c5.54 0 9.846-4.306 9.846-9.846v-59.077zM374.154 283.077c0-46.762-32.007-64.617-55.388-77.851-14.467-8.31-23.382-23.382-23.382-30.457v0c0-5.54-4.306-9.846-9.846-9.846h-59.077c-5.54 0-9.846 4.306-9.846 9.846v11.080c0 29.841 29.84 55.388 51.699 65.234 18.774 8.612 27.070 16.62 27.070 32.611 0 13.535-18.156 26.151-37.849 26.151-11.080 0-21.228-3.689-26.466-7.378-5.842-4.306-11.999-9.846-26.466-28.304-1.851-2.468-4.923-3.689-7.693-3.689-2.153 0-4.306 0.617-5.842 1.851l-40.618 30.772c-4.004 3.072-5.225 8.612-2.468 12.918 26.48 43.98 64.013 65.523 114.176 65.523 52.92 0 111.996-42.154 111.996-98.462zM492.308 224c0 130.468-105.839 236.308-236.308 236.308s-236.308-105.839-236.308-236.308 105.84-236.308 236.308-236.308 236.308 105.839 236.308 236.308z" />
<glyph unicode="&#xe612;" d="M256 435.932l66.853-142.3 155.977-19.603-114.688-107.52 29.587-154.441-137.728 75.813-137.728-75.813 29.587 154.441-114.688 107.52 155.977 19.602 66.853 142.3z" />
<glyph unicode="&#xe613;" d="M292.572 169.143q0-7.428-5.428-12.857l-128-128q-5.428-5.428-12.857-5.428t-12.857 5.428l-128 128q-5.428 5.428-5.428 12.857t5.428 12.857 12.857 5.428h256q7.428 0 12.857-5.428t5.428-12.857zM292.572 278.857q0-7.428-5.428-12.857t-12.857-5.428h-256q-7.428 0-12.857 5.428t-5.428 12.857 5.428 12.857l128 128q5.429 5.428 12.857 5.428t12.857-5.428l128-128q5.428-5.428 5.428-12.857z" horiz-adv-x="293" />
<glyph unicode="&#xe614;" d="M98.462 7.385v433.231l345.226-216.615z" />
<glyph unicode="&#xe615;" d="M408.003 464.491c48.789 0 88.488-39.694 88.488-88.492v-303.998c0-48.793-39.694-88.492-88.488-88.492h-304.007c-48.794 0-88.487 39.694-88.487 88.492v303.998c0 48.793 39.694 88.492 88.487 88.492h304.007zM408.003 473.8h-304.007c-53.998 0-97.796-43.804-97.796-97.802v-303.998c0-54.034 43.804-97.802 97.796-97.802h304.007c54.034 0 97.796 43.762 97.796 97.802v303.998c0 53.998-43.757 97.801-97.796 97.801v0zM397.689 193.327c12.846 39.042 32.935 124.668 40.518 155.14 6.707 26.945 11.101 36.981-0.991 36.776-10.137-0.177-35.989-2.639-41.318-23.957-8.909-35.612-30.171-117.635-37.962-143.7-8.565-28.663-26.783-34.635-49.729-34.844-19.982-0.154-30.981 1.392-30.981 16.584-6.372 0.125-16.198 0.051-20.726 0.028-4.519 0.024-14.345 0.098-20.718-0.028 0-15.993-10.999-16.584-30.981-16.584-14.862 0-37.39 2.755-45.647 29.976-5.753 18.981-20.117 68.091-27.489 94.022-7.391 25.959-30.608 27.406-41.746 27.452-12.246 0.051-11.273-1.932-4.198-27.452 7.056-25.516 22.547-82.432 33.373-120.572 10.845-38.139 48.017-50.581 71.755-50.581 20.382 0 21.089 0 40.061 0 18.2 0 24.627 7.805 25.59 10.277 0.982-2.471 7.992-10.277 26.219-10.277 18.972 0 18.464 0 38.847 0 33.019 0 63.707 20.061 76.125 57.74zM214.7 311.352c0-10.483-8.498-18.981-18.981-18.981s-18.981 8.498-18.981 18.981c0 10.483 8.498 18.981 18.981 18.981s18.981-8.498 18.981-18.981zM276.392 311.352c0-10.483-8.498-18.981-18.981-18.981s-18.981 8.498-18.981 18.981c0 10.483 8.498 18.981 18.981 18.981s18.981-8.498 18.981-18.981zM319.893 292.37c10.464 0 18.981 8.499 18.981 18.976 0 10.482-8.518 18.981-18.981 18.981-10.482 0-18.981-8.499-18.981-18.981-0.005-10.472 8.499-18.976 18.981-18.976zM214.7 242.981c0-10.483-8.498-18.981-18.981-18.981s-18.981 8.498-18.981 18.981c0 10.483 8.498 18.981 18.981 18.981s18.981-8.498 18.981-18.981zM276.392 242.981c0-10.483-8.498-18.981-18.981-18.981s-18.981 8.498-18.981 18.981c0 10.483 8.498 18.981 18.981 18.981s18.981-8.498 18.981-18.981zM319.893 224c10.464 0 18.981 8.494 18.981 18.976s-8.518 18.981-18.981 18.981c-10.482 0-18.981-8.499-18.981-18.981s8.499-18.976 18.981-18.976zM106.654 125.133c-20.992 0-38.037-17.045-38.037-38.060 0-20.992 17.045-38.037 38.037-38.037 21.020 0 38.065 17.045 38.065 38.037 0 21.015-17.045 38.060-38.065 38.060zM106.654 73.421c-7.517 0-13.638 6.107-13.638 13.652s6.116 13.647 13.638 13.647c7.545 0 13.656-6.102 13.656-13.647s-6.112-13.652-13.656-13.652zM406.784 125.622c-21.020 0-38.065-17.050-38.065-38.065 0-20.988 17.045-38.065 38.065-38.065 21.002 0 38.046 17.077 38.046 38.065-0.005 21.015-17.050 38.065-38.046 38.065zM406.784 73.909c-7.545 0-13.656 6.107-13.656 13.652s6.107 13.652 13.656 13.652c7.517 0 13.647-6.107 13.647-13.652s-6.13-13.652-13.647-13.652z" />
<glyph unicode="&#xe616;" d="M567.029 291.107c-21.248 42.473-30.336 79.721-42.472 148.504 0 3.91-9.542 17.257-21.248 17.257h-424.797c-11.706 0-21.236-13.347-21.236-17.257 0 0-21.236-127.267-42.484-148.504 0-21.585 0-64.349 0-64.349s0.291-0.721 0.733-1.699h-0.733c0 0 1.909-10.38 15.104-16.594 1.862-1.082 3.875-2.002 6.144-2.618v-195.177c0-11.637 12.114-19.526 23.773-19.526h169.46v180.515c0 11.706 11.148 21.155 22.808 21.155h79.36c11.648 0 21.108-9.449 21.108-21.155v-180.526h172.195c11.659 0 21.038 7.889 21.038 19.526v195.48c16.885 2.805 21.248 19.537 21.248 19.537h-0.524c0.314 0.989 0.524 1.71 0.524 1.71s0 42.473 0 63.721zM181.387 78.709c0-11.683-5.225-21.248-16.919-21.248h-43.811c-11.695 0-17.257 9.565-17.257 21.248v84.957c0 11.683 5.574 21.248 17.257 21.248h43.811c11.695 0 16.919-9.565 16.919-21.248v-84.957zM477.87 78.709c0-11.683-4.69-21.248-16.373-21.248h-43.38c-11.683 0-17.245 9.565-17.245 21.248v84.957c0 11.683 5.574 21.248 17.245 21.248h43.38c11.683 0 16.373-9.565 16.373-21.248v-84.957zM481.734 422.074c0 0 22.563-108.067 36.352-130.979-21.085 0-57.926 0-57.926 0l-21.224 130.979h42.798zM520.192 269.859l-0.174-16.629c-2.072-14.592-14.488-25.856-29.649-25.856-16.616 0-29.836 9.914-29.836 26.519 0 0.465 0.71 15.953 0.71 15.953h58.95zM360.32 258.816l-0.046 11.043h60.392l-0.233-16.768c-2.141-14.522-14.522-25.704-29.638-25.704-16.616 0-30.080 13.464-30.080 30.080 0 0.466 0.128 0.896 0.151 1.35h-0.547zM396.44 422.074c0 0 15.942-105.088 22.563-130.979 6.632 0-58.74 0-58.74 0l-6.296 130.979h42.472zM269.010 422.074h43.136l7.726-130.979h-57.926l7.063 130.979zM261.446 269.859h58.926l0.361-14.813c-1.245-15.464-14.045-27.66-29.824-27.66s-28.579 12.195-29.824 27.66l0.361 14.813zM184.041 422.074h42.472l-6.307-130.979c0 0-41.472 0-56.75 0 6.644 23.901 20.584 130.979 20.584 130.979zM161.966 269.859h58.938l0.594-11.043h-0.559c0.024-0.454 0.151-0.885 0.151-1.35 0-16.617-13.464-30.080-30.080-30.080-15.081 0-27.439 11.125-29.614 25.6l0.57 16.873zM100.085 422.074h41.484l-17.443-130.979c0 0-42.298 0-57.903 0 16.267 29.556 33.862 130.979 33.862 130.979zM62.255 269.859h58.926c0 0 0-11.928 0-12.393 0-16.617-13.463-30.080-30.080-30.080-14.731 0-26.927 10.589-29.522 24.541l0.675 17.932z" horiz-adv-x="582" />
<glyph unicode="&#xe617;" d="M246.764 187.688h-41.709c-5.337 0-9.846-3.88-10.673-9.236 0 0-26.605-167.621-28.239-178.57-1.043-6.735 4.825-12.19 10.91-12.19h66.323c9.039 0 16.778 6.577 18.157 15.498l16.089 100.234c1.398 8.96 9.098 15.537 18.137 15.537h11.421c74.082 0 132.056 30.11 148.992 117.091 7.070 36.352 4.844 76.781-27.156 98.048-10.417-57.797-42.969-146.412-182.252-146.412zM205.056 207.931h43.107c22.863 0 43.284 2.541 61.302 7.739 45.666 13.095 76.327 42.772 91.707 90.014 19.338 59.411 10.772 94.621-11.264 119.020-22.272 24.576-61.459 35.603-112.049 35.603h-136.763c-10.358 0-19.18-7.522-20.775-17.723l-61.164-387.86c-1.201-7.661 4.687-14.611 12.465-14.611h80.561c0 0 21.681 136.113 22.292 140.072 2.029 13.233 10.437 27.747 30.582 27.747z" />
<glyph unicode="&#xe618;" d="M342.213 178.577l87.428 84.857-120.572 17.715-54 109.143-54-109.143-120.572-17.714 87.428-84.857-20.857-120.286 108 56.857 107.714-56.857zM492.784 280.577q0-6.286-7.428-13.714l-103.714-101.143 24.572-142.857q0.286-2 0.286-5.714 0-14.286-11.714-14.286-5.428 0-11.428 3.428l-128.286 67.428-128.286-67.428q-6.285-3.428-11.428-3.428-6 0-9 4.143t-3 10.143q0 1.714 0.572 5.714l24.571 142.857-104 101.143q-7.143 7.714-7.143 13.714 0 10.572 16 13.143l143.429 20.857 64.286 130q5.428 11.715 14 11.715t14-11.715l64.286-130 143.429-20.857q16-2.572 16-13.143z" />
<glyph unicode="&#xe619;" d="M513.238 48.384h-39.815v30.832h39.294c12.818 0 23.198 10.38 23.198 23.217v250.759c-98.341 0-329.691 0-394.64 0v-145.231h-31.186v207.62c0 29.631 24.017 53.63 53.621 53.63h349.528c29.603 0 53.62-23.999 53.62-53.63v-313.577c0-29.603-24.027-53.62-53.62-53.62zM180.196 409.986c0 7.112-5.744 12.856-12.846 12.856h-12.846c-7.103 0-12.846-5.744-12.846-12.856v-12.846c0-7.103 5.744-12.846 12.846-12.846h12.846c7.103 0 12.846 5.743 12.846 12.846v12.846zM233.826 409.986c0 7.112-5.744 12.856-12.846 12.856h-12.846c-7.103 0-12.846-5.744-12.846-12.856v-12.846c0-7.103 5.744-12.846 12.846-12.846h12.846c7.103 0 12.846 5.743 12.846 12.846v12.846zM535.841 422.833h-278.733v-38.53h278.724v38.53zM229.786 55.421c-3.472 0-5.902 2.038-7.28 6.070-1.35 4.022-2.011 11.125-2.011 21.272 0 10.128 0.689 17.017 2.066 20.731 1.452 3.966 3.845 5.967 7.224 5.967 3.184 0 5.483-2.076 6.917-6.255 1.424-4.505 2.141-11.423 2.141-20.796 0-9.291-0.717-16.216-2.141-20.694-1.434-4.189-3.733-6.293-6.917-6.293zM238.369 112.365c-0.977 1.889-1.983 3.473-3.025 4.785-1.034 1.294-2.038 2.29-3.016 2.979-2.011 1.49-4.58 2.253-7.652 2.253-3.258 0-6.042-0.764-8.397-2.272-2.355-1.526-4.292-3.891-5.772-7.057-1.508-3.202-2.625-7.252-3.361-12.204-0.717-4.925-1.089-10.762-1.089-17.548 0-14.038 1.452-24.306 4.394-30.869 2.97-6.545 7.577-9.821 13.852-9.821 3.342 0 6.013 0.8 8.024 2.365 2.020 1.601 4.031 4.505 6.042 8.741v-9.942h14.094v127.478c22.919-0.894 22.929-24.25 22.929-24.25v-100.929c0-24.269-24.269-24.269-24.269-24.269h-216.548c-24.269 0-24.269 24.269-24.269 24.269v100.929c0 24.269 24.269 24.269 24.269 24.269h203.794v-58.908zM69.678 121.032l-5.083-24.492c-1.88-8.815-3.128-15.416-3.761-19.819l-1.694-11.506c0-0.233-0.158-1.145-0.447-2.69-0.475 6.582-1.145 12.651-1.909 18.2-0.791 5.567-1.75 10.836-2.886 15.816l-5.539 24.492h-15.127l20.657-77.256h9.514l19.922 77.256h-13.647zM135.112 81.469c0 27.276-7.662 40.913-22.965 40.913-7.866 0-13.665-3.296-17.436-9.877-3.761-6.563-5.641-16.654-5.641-30.329 0-6.87 0.484-12.781 1.377-17.762s2.308-9.077 4.236-12.325c1.909-3.221 4.32-5.623 7.233-7.168 2.942-1.546 6.442-2.308 10.52-2.308 13.694 0 21.057 9.077 22.090 27.238h-13.135c0-9.961-2.942-14.941-8.825-14.941-6.46 0-9.7 8.257-9.7 24.743h32.237v1.815zM192.912 98.784c0 8.015-0.717 13.414-2.197 16.179-2.644 4.962-7.047 7.42-13.219 7.42-6.386 0-11.571-3.416-15.574-10.24v8.89h-14.122v-77.256h14.122v49.99c0 2.979 0.159 5.529 0.475 7.55 0.316 2.058 0.819 3.687 1.489 4.981 0.689 1.276 1.592 2.178 2.672 2.765 1.117 0.568 2.467 0.856 4.077 0.856 2.97 0 5.055-1.089 6.274-3.277 1.22-2.216 1.825-5.911 1.825-11.125l0.084-51.731h14.094v54.998zM105.603 105.961c1.219 2.858 3.286 4.255 6.2 4.255 2.84 0 4.897-1.397 6.172-4.255 1.248-2.541 2.141-7.875 2.755-16.002h-17.855c0.577 8.136 1.48 13.461 2.728 16.002zM371.656 119.040h-44.2c-3.416 0-6.488 1.889-7.801 5.036-0.438 1.034-0.633 2.159-0.633 3.24 0 2.197 0.856 4.366 2.476 5.986l80.505 89.647c3.296 3.286 8.658 3.286 11.943 0l79.798-89.647c2.421-2.421 3.147-6.088 1.834-9.216-1.313-3.147-4.385-5.036-7.801-5.036h-43.51c0-57.67-27.964-140.232-170.71-140.232 85.262 24.707 98.099 65.406 98.099 140.223z" horiz-adv-x="577" />
<glyph unicode="&#xe61a;" d="M86.835 207.95c-1.385 4.619 1.154 9.7 6.004 11.316 4.619 1.385 9.7-1.154 11.316-6.005l58.891-191.683h314.544l59.122 191.683c1.385 4.619 6.466 7.39 11.316 6.005 4.619-1.385 7.39-6.466 6.005-11.316l-60.738-197.225c-0.924-3.926-4.388-6.928-8.776-6.928h-328.17c-3.926 0-7.39 2.541-8.545 6.236l-60.969 197.918zM77.366 237.741c-4.85 0-9.007 3.926-9.007 9.007s3.926 9.007 9.007 9.007h485.904c4.85 0 9.007-3.926 9.007-9.007s-3.926-9.007-9.007-9.007h-485.904zM59.352 273.768c-4.85 0-9.007 3.926-9.007 9.007 0 4.85 3.926 9.007 9.007 9.007h521.931c4.85 0 9.007-3.926 9.007-9.007 0-4.85-3.926-9.007-9.007-9.007h-521.931zM278.748 169.151c0 5.312 4.619 9.469 9.93 9.007 4.619-0.462 8.083-4.85 8.083-9.469v-77.827c0-4.85-3.464-9.238-8.083-9.7-5.312-0.462-9.93 3.695-9.93 9.007v78.983zM213.391 169.151c0 5.312 4.619 9.469 9.93 9.007 4.619-0.462 8.083-4.85 8.083-9.469v-77.827c0-4.85-3.464-9.238-8.083-9.7-5.311-0.462-9.93 3.695-9.93 9.007v78.983zM343.873 169.151c0 5.312 4.619 9.469 9.93 9.007 4.619-0.462 8.083-4.85 8.083-9.469v-77.827c0-4.85-3.464-9.238-8.083-9.7-5.312-0.462-9.93 3.695-9.93 9.007v78.983zM409.231 169.151c0 5.312 4.619 9.469 9.93 9.007 4.619-0.462 8.083-4.85 8.083-9.469v-77.827c0-4.85-3.464-9.238-8.083-9.7-5.312-0.462-9.93 3.695-9.93 9.007v78.983zM255.885 313.721c-2.772-4.157-8.314-5.312-12.471-2.541s-5.311 8.314-2.541 12.471l42.031 63.048c2.772 4.157 8.314 5.311 12.471 2.541s5.312-8.314 2.541-12.471l-42.031-63.048zM399.762 323.652c2.772-4.157 1.616-9.7-2.541-12.471s-9.7-1.617-12.471 2.541l-42.031 63.048c-2.772 4.157-1.616 9.7 2.541 12.471s9.7 1.616 12.471-2.541l42.031-63.048zM320.317 453.673c7.39 0 14.318-3.002 19.168-7.852s7.852-11.547 7.852-19.168c0-7.39-3.002-14.318-7.852-19.168s-11.547-7.852-19.168-7.852c-7.39 0-14.318 3.002-19.168 7.852s-7.852 11.547-7.852 19.168c0 7.39 3.002 14.319 7.852 19.168s11.778 7.852 19.168 7.852v0zM326.784 432.887c-1.616 1.617-3.926 2.541-6.466 2.541s-4.85-0.924-6.466-2.541c-1.616-1.616-2.541-3.926-2.541-6.466s0.924-4.85 2.541-6.466c1.616-1.616 3.926-2.541 6.466-2.541s4.85 0.924 6.466 2.541c1.616 1.617 2.541 3.926 2.541 6.466s-0.924 4.85-2.541 6.466z" horiz-adv-x="635" />
</font>
</defs>
</svg>
